Темный Ангел / Dark Angel / Сезон: 1 / Серии: 1-22 (22) (Джефф Вулнаф, Томас Дж. Райт, Джо Энн Фогл) [2000 г., Боевик, фантастика, DVDRip-AVC] (1001 cinema)

Ответить на тему
 
Автор
Сообщение

awk05 ®

Пол:

Стаж: 4 года 5 месяцев

Сообщений: 1352

Репутация: 275 [+] [-]

Откуда: Западная Украина Ривне

Пост 14-Июн-2012 16:57

[Цитировать] 

--Темный Ангел / Dark Angel«Not all weapons are created equal»-- Год выпуска: 2000
Страна: США
Жанр: Боевик, фантастика
Сезон/Серия: Сезон:1 /Серия 1-22 из 22
Продолжительность: 22 х ~00:42:00 мин
Перевод: Профессиональный (двухголосый)
Озвучка / Автор перевода: (1001 cinema)
Субтитры: отсутствуют--Режиссер: Джефф Вулнаф, Томас Дж. Райт, Джо Энн Фогл--В ролях: Джессика Альба (Max Guevera), Майкл Уэтерли (Logan Cale), Ричард Ганн (Calvin «Sketchy» Theodore), Дж.С. МакКензи (Reagan «Normal» Ronald), Валери Рэй Миллер (Cynthia «Original Cindy» McEachin), Джон Сэвэдж (Donald Lydecker), Дженсен Эклс (Alec), Алими Баллард (Herbal Thought), Мартин Камминс (Ames White), Кевин Дюран (Joshua), Эшли Скотт (Asha Barlow), Дженнифер Бланк (Kendra Maibaum), и др.--Описание: Электромагнитный импульс, устроенный террористами в 2009, превратил США в страну Третьего мира.
Главная героиня Макс Гевара (Джессика Альба) вместе со своими 11 друзьями сбегает из организации «Мантикора», где на генетическом уровне выращивали идеальных и непобедимых солдат. К сожалению, все ребята разбегаются, так что Макс делает все, чтобы найти их 9 лет спустя. С первых серий строится сюжетная линия фильма.
В начальных сериях Макс параллельно с работой курьера зарабатывает грабежом состоятельных людей и на очередной вылазке знакомится с Логаном, который тоже держит за собой тайну. Он под прикрытием «ОКА», в прямом эфире рассказывает о преступлениях в городе, так называемый «поток свободы». Он заключает устное соглашение с Макс: она помогает ему разоблачать преступный мир, а он взамен помогает находить ее друзей, сбежавших из «Мантикоры». Постепенно Макс их обнаруживает, но выясняется, что на генетически созданных солдат охотятся, чтобы вернуть их обратно на базу. Теперь, главное, не попасться в руки Лайдекера.--Качество видео: DVDRip-AVC
Формат видео: AVI
Видео кодек: MPEG4, XviD
Аудио кодек: MP3
Видео: MPEG4, XviD, 608x352 (16:9), 25.000 fps, 1 043 Kbps (0.195 bit/pixel)
Аудио: MP3, 48.0 KHz, 2 ch, 128 Kbps, CBR, 16 bits [Русский] -- --

Список серий

1.1-1.2. — Пилотная серия / Pilot
1.3. — "Жара" / "Heat"
1.4. — "На дне" / "Flushed"
1.5. — "Деньги правят миром" / "C.R.E.A.M." ("Cash Rules Everything Around Me")
1.6. — "Требуются секреты" / "411 on the DL"
1.7. — "Чудо" / "Prodigy"
1.8. — "Холодный комфорт" / "Cold Comfort"
1.9. — "Слова и поступки" / "Blah Blah Woof Woof"
1.10. — "За чертой" / "Out"
1.11. — "Красная серия" / "Red"
1.12. — "Сила искусства" / "Art Attack"
1.13. — "Восхождение" / "Rising"
1.14. — "Детки в порядке" / "The Kidz Are Aiight"
1.15. — "Женская проблема" / "Female Trouble"
1.16. — "Тихая гавань" / "Haven"
1.17. — "Малышка в любви" / "Shorties in Love"
1.18. — "Безумный игрок" / "Pollo Loco"
1.19. — "Я и человек-камера" / "I and I Am a Camera"
1.20. — "Вернись, сестрёнка" / "Hit a Sista Back"
1.21. — "Мяу" (Часть 1) / "Meow"(Part 1)
1.22. — "...И Иисус принес запеканку" (Часть 2) / "...and Jesus Brought a Casserole"(Part 2)

Кадры из фильма



Тех. данные (MI)

Код:
Общее
Полное имя                               : E:\СЕРИАЛЫ\Dark_Angel\Dark_Angel_s02_2002_XviD_DVDRip_rus_eng_NovaFilm_TV_avi\Dark_Angel_s01_2001_XviD_DVDRip_rus_eng_1001_Cinema_avi\Dark_Angel.s01e01.dvdrip.rus.proper.[1001cinema.ru].avi
Формат                                   : AVI
Формат/Информация                        : Audio Video Interleave
Размер файла                             : 701 Мбайт
Продолжительность                        : 1 ч. 23 м.
Общий поток                              : 1181 Кбит/сек
Программа кодирования                    : VirtualDubModRus 1.5.10.2 (build 2540/release)
Библиотека кодирования                   : VirtualDubMod build 2540/release
Видео
Идентификатор                            : 0
Формат                                   : MPEG-4 Visual
Профиль формата                          : Advanced Simple@L5
Параметр BVOP формата                    : 1
Параметр QPel формата                    : Нет
Параметр GMC формата                     : Без точки перехода
Параметр матрицы формата                 : Выборочная
Идентификатор кодека                     : XVID
Идентификатор кодека/Подсказка           : XviD
Продолжительность                        : 1 ч. 23 м.
Битрейт                                  : 1043 Кбит/сек
Ширина                                   : 608 пикселей
Высота                                   : 352 пикселя
Соотношение сторон                       : 5:4
Соотношение сторон в оригинале           : 1,727
Частота кадров                           : 25,000 кадров/сек
Цветовое пространство                    : YUV
Субдискретизация насыщенности            : 4:2:0
Битовая глубина                          : 8 бит
Тип развёртки                            : Прогрессивная
Метод сжатия                             : С потерями
Бит/(Пиксели*Кадры)                      : 0.195
Размер потока                            : 620 Мбайт (88%)
Библиотека кодирования                   : XviD 1.2.0.dev47 (UTC 2006-11-01)
Аудио
Идентификатор                            : 1
Формат                                   : MPEG Audio
Версия формата                           : Version 1
Профиль формата                          : Layer 3
Режим                                    : Joint stereo
Расширение режима                        : MS Stereo
Идентификатор кодека                     : 55
Идентификатор кодека/Подсказка           : MP3
Продолжительность                        : 1 ч. 23 м.
Вид битрейта                             : Постоянный
Битрейт                                  : 128 Кбит/сек
Каналы                                   : 2 канала
Частота                                  : 48,0 КГц
Метод сжатия                             : С потерями
Размер потока                            : 76,0 Мбайт (11%)
Выравнивание                             : Соединение по промежуткам
Продолжительность промежутка             : 40  мс. (1,00 видеокадр)
Время предзагрузки промежутка            : 504  мс.
«СЕЗОН 1» «СЕЗОН 2»

_________________
[Торрент-статистика]
[Профиль]  [ЛС] 
Показать сообщения:    
Ответить на тему

Текущее время: Сегодня 20:34

Часовой пояс: GMT + 4



Вы не можете начинать темы
Вы не можете отвечать на сообщения
Вы не можете редактировать свои сообщения
Вы не можете удалять свои сообщения
Вы не можете голосовать в опросах
Вы не можете прикреплять файлы к сообщениям
Вы не можете скачивать файлы