Тарзан: История приключений / Tarzan: The Epic Adventures (1996-1998) TVRip [1 - 22 серии из 22]

Ответить на тему
 
Автор
Сообщение

vikaira ®

Пол:

Стаж: 4 года 7 месяцев

Сообщений: 1

Репутация: 0 [+] [-]

Откуда: Из зарубежных сериалов

Пост 20-Апр-2012 15:26

[Цитировать] 

Тарзан: История приключений / Tarzan: The Epic Adventures
Год выпуска: 1996
Дата мировой премьеры: 16 февраля 1997
Страна: США
Жанр: Приключения, Фэнтези
Релиз группа: mio47
IMDB
КиноПоиск
Продолжительность: 22 серии по 00:42:26
Перевод: Профессиональный (многоголосый, закадровый)
Озвучка / Автор перевода: студия ФильмЭкспорт по заказу СТC

Режиссер: Джон Карл Бюхлер, Марк Роупер, Джино Танасеску, Уильям Тэннен, Брайан Юзна
В ролях: Джо Лара, Аарон Севилл, Лидия Денье, Кори Эверсон, Линда Хоффман, Эндрю Дивофф
Описание: Тарзан осиротел маленьким ребенком, потеряв в джунглях родителей. Его воспитывали обезьяны, он рос в первобытном мире джунглей, пока судьба не вернула его в мир людей. Возвратив себе титул лорда Грейстока, он по праву стал членом высшего общества, но вскоре, разочаровавшись в цивилизации, принял решение вернуться домой – в Африку. Поиски сокровищ, борьба со злодеями и тёмными духами, силами мира иного и просто с теми, кто не желает оставить в покое Тарзана и его друзей каждый раз, всё снова и снова оборачивается в очередные действия и головокружительные приключения.
Тип релиза: TVRip
Контейнер: AVI
Видео кодек: XviD
Аудио кодек: MP3 (MPEG1 Layer 3)
Видео: Video: 704x528 (1.33:1), 25 fps, XviD build 50 ~1308 kbps avg, 0.14 bit/pixel
Аудио: Audio: 48 kHz, MPEG Layer 3, 2 ch, ~192.00 kbps avg

MediaInfo

Полное имя : H:\Tarzan.The.Epic.Adventures\Tarzan.The.Epic.Adventures(01.seria.iz.22).1996-1997.XviD.TVRip.avi
Формат : AVI
Формат/Информация : Audio Video Interleave
Размер файла : 460 Мбайт
Продолжительность : 42 м.
Общий поток : 1514 Кбит/сек
Программа кодирования : MEncoder SVN-r29352(20090610-gcc4.3.3)
Библиотека кодирования : MPlayer
Видео
Идентификатор : 0
Формат : MPEG-4 Visual
Профиль формата : Advanced Simple@L5
Параметр BVOP формата : 2
Параметр QPel формата : Нет
Параметр GMC формата : Без точки перехода
Параметр матрицы формата : Default (H.263)
Идентификатор кодека : XVID
Идентификатор кодека/Подсказка : XviD
Продолжительность : 42 м.
Битрейт : 1309 Кбит/сек
Ширина : 704 пикселя
Высота : 528 пикселей
Соотношение сторон : 4:3
Частота кадров : 25,000 кадров/сек
Цветовое пространство : YUV
Субдискретизация насыщенности : 4:2:0
Битовая глубина : 8 бит
Тип развёртки : Прогрессивная
Метод сжатия : С потерями
Бит/(Пиксели*Кадры) : 0.141
Размер потока : 397 Мбайт (86%)
Библиотека кодирования : XviD 1.2.1 (UTC 2008-12-04)
Аудио
Идентификатор : 1
Формат : MPEG Audio
Версия формата : Version 1
Профиль формата : Layer 3
Режим : Joint stereo
Расширение режима : MS Stereo
Идентификатор кодека : 55
Идентификатор кодека/Подсказка : MP3
Продолжительность : 42 м.
Вид битрейта : Постоянный
Битрейт : 192 Кбит/сек
Каналы : 2 канала
Частота : 48,0 КГц
Метод сжатия : С потерями
Задержка видео : 40 мс.
Размер потока : 58,3 Мбайт (13%)
Выравнивание : Соединение по промежуткам
Продолжительность промежутка : 24 мс. (0,60 видеокадр)
Время предзагрузки промежутка : 504 мс.
Библиотека кодирования : LAME3.98

Скриншоты

Время раздачи: будни с 14 до 20 часов (МСК)

_________________
[Торрент-статистика]
[Профиль]  [ЛС] 
Показать сообщения:    
Ответить на тему

Текущее время: Сегодня 20:35

Часовой пояс: GMT + 4



Вы не можете начинать темы
Вы не можете отвечать на сообщения
Вы не можете редактировать свои сообщения
Вы не можете удалять свои сообщения
Вы не можете голосовать в опросах
Вы не можете прикреплять файлы к сообщениям
Вы не можете скачивать файлы