Звездный путь: Вояджер / Star Trek Voyager / Сезон: 1 Серии: 1-16 (16) / Сезон: 2 Серии: 1-26 (26) (Рик Берман) [1995, Фантастика, DVDRip-AVC] DVO (AXN Sci Fi)

Ответить на тему
 
Автор
Сообщение

kaliasa ®

Пол:

Стаж: 4 года 8 месяцев

Сообщений: 113

Репутация: 84 [+] [-]

Пост 21-Мар-2012 18:11

[Цитировать] 

Звездный путь: Вояджер / Star Trek Voyager Год выпуска: 1995
Страна: США
Жанр: Фантастика
Продолжительность: 45 мин серия
Перевод: Профессиональный (двухголосый закадровый)
Доп. инфо о переводе: AXN Sci Fi
Режиссер: Рик Берман
В ролях: Кейт Малгрю, Роберт Белтран, Тим Расс, Роксанн Доусон, Роберт Дункан Макнейл, Гаррет Ванг, Роберт Пикардо, Этан Филипс и Дженнифер Льен
Описание: Время действия сериала – 2371 год. Только что спущенный с доков звёздолёт «Вояджер» Объединённой Федерации Планет получил первое задание – найти корабль «Маки», организации, которая борется против Кардассианцев и считается ими и Федерацией террористами. По случайному стечению обстоятельств оба корабля попали в пространственную аномалию, созданную неизвестной инопланетной формой жизни называющей себя «Опекун». Он перенёс из в Дельта квадрант, за 70 тысяч световых лет от Земли с перспективой потратить на обратный путь не одно десятилетие. Объединив усилия с командой корабля «Макки», капитан Джейнвей дала клятву, что «Вояджер» во что бы то ни стало вернётся домой.
Сэмпл: http://ifolder.ru/29414559
Тип релиза: DVDRip-AVC
Контейнер: MKV
Видео кодек: H264 (AVC)
Аудио кодек: MP3 (MPEG1 Layer 3)
Видео: MPEG4 Video (H264) 720x548 23.98fps 0.169 1795 Kbps
Аудио: MPEG Audio Layer 3 48000Hz stereo 192 kbps

Скриншоты

MI

General
Unique ID : 255251541692662700742939874186313343538 (0xC007A8A3D1D96A526536DF44601C2232)
Complete name : F:\VOY S1 AXN Sci Fi\VOY 1x01-02 AXN Sci Fi.mkv
Format : Matroska
File size : 1.15 GiB
Duration : 1h 31mn
Overall bit rate : 1 795 Kbps
Writing application : AVI-Mux GUI 1.17.8, Aug 30 2008 12:36:58
Writing library : matroska muxer by Alexander Noe, build date Aug 30 2008
Video
ID : 1
Format : AVC
Format/Info : Advanced Video Codec
Format profile : High@L4.1
Format settings, CABAC : Yes
Format settings, ReFrames : 8 frames
Codec ID : V_MPEG4/ISO/AVC
Duration : 1h 31mn
Bit rate : 1 600 Kbps
Width : 720 pixels
Height : 548 pixels
Display aspect ratio : 4:3
Frame rate : 23.976 fps
Color space : YUV
Chroma subsampling : 4:2:0
Bit depth : 8 bits
Scan type : Progressive
Bits/(Pixel*Frame) : 0.169
Stream size : 1.01 GiB (87%)
Writing library : x264 core 68 r1183M f21daff
Encoding settings : cabac=1 / ref=8 / deblock=1:0:0 / analyse=0x3:0x133 / me=umh / subme=6 / psy_rd=1.0:0.0 / mixed_ref=1 / me_range=16 / chroma_me=1 / trellis=2 / 8x8dct=1 / cqm=0 / deadzone=21,11 / chroma_qp_offset=-2 / threads=3 / nr=0 / decimate=1 / mbaff=0 / bframes=3 / b_pyramid=1 / b_adapt=2 / b_bias=0 / direct=3 / wpredb=1 / keyint=250 / keyint_min=25 / scenecut=40 / rc=2pass / bitrate=1600 / ratetol=1.0 / qcomp=0.60 / qpmin=10 / qpmax=51 / qpstep=4 / cplxblur=20.0 / qblur=0.5 / vbv_maxrate=17500 / vbv_bufsize=14000 / ip_ratio=1.30 / pb_ratio=1.30 / aq=1:1.00
Language : English
Default : Yes
Forced : No
Audio
ID : 2
Format : MPEG Audio
Format version : Version 1
Format profile : Layer 3
Mode : Joint stereo
Codec ID : A_MPEG/L3
Codec ID/Hint : MP3
Duration : 1h 31mn
Bit rate mode : Constant
Bit rate : 192 Kbps
Channel(s) : 2 channels
Sampling rate : 48.0 KHz
Compression mode : Lossy
Stream size : 126 MiB (11%)
Language : English
Default : Yes
Forced : No
Menu
00:00:00.054 : en:00:00:00.054 / en:00:00:00.054

Внимание! Раздача ведётся путём добавления новых серий

Внимание! Раздача ведётся путём добавления новых серий; при каждом добавлении создаётся новый торрент. Чтобы начать докачку новой серии, пользователям необходимо сделать следующее:
(1) остановить скачивание,
(2) удалить старый торрент у себя из клиента (старые серии удалять не надо),
(3) скачать новый торрент и запустить его у себя в клиенте вместо старого, при этом указать клиенту путь в старую папку куда и должно происходить скачивание новых серий.
Ваш клиент при этом должен произвести хеширование (проверку) старой папки (если не производит сам - помогите ему сделать это), и будет докачивать только те серии которых у вас ещё нет. Старые серии при этом не удаляются, а продолжают раздаваться!
Eсли вы уже удалили старые серии, то предотвратить повторную закачку старых серий можно, отжав галочку в соответствующих местах при запуске нового торрента. По возможности, желательно не удалять старые серии как можно дольше чтобы релизёр не столько продолжал раздавать старые серии, а смог сконцентрироваться на новых.
26.01.2012 Добавлены отсутствующие серии сезонов 1 и 2


Последний раз редактировалось: kaliasa (2013-01-26 17:31), всего редактировалось 11 раз(а)
[Торрент-статистика]
[Профиль]  [ЛС] 

kaliasa ®

Пол:

Стаж: 4 года 8 месяцев

Сообщений: 113

Репутация: 84 [+] [-]

Пост 29-Мар-2012 23:47 (спустя 8 дней)

[Цитировать] 

торрент обновлён
[Торрент-статистика]
[Профиль]  [ЛС] 
Показать сообщения:    
Ответить на тему

Текущее время: Сегодня 18:22

Часовой пояс: GMT + 4



Вы не можете начинать темы
Вы не можете отвечать на сообщения
Вы не можете редактировать свои сообщения
Вы не можете удалять свои сообщения
Вы не можете голосовать в опросах
Вы не можете прикреплять файлы к сообщениям
Вы не можете скачивать файлы