РеГенезис / ReGenesis (2004-2008) DVDRip [Season 1-4 Episode 1-50]

Ответить на тему
 
Автор
Сообщение

NeliyZar ®

Пол:

Стаж: 5 лет 1 месяц

Сообщений: 3378

Репутация: 687 [+] [-]

Откуда: Донбасс

Пост 26-Фев-2012 19:29

[Цитировать] 

РеГенезис / ReGenesis (2004-2008) DVDRip [Season 1-4 Episode 1-50]- Русское название: РеГенезис
Оригинальное название: ReGenesis
Год выпуска: 2004-2008
Жанр: Фантастика, Драма
Перевод: Многоголосый закадровый, профессиональный
Язык: Русский
Озвучка / Автор перевода: Телекомпания 1ТВЧ
Вид субтитров: Отсутствуют
Режиссер: Джон Л’Экуаер, Дон МакБрити, Джерри Чиккоритти
Актеры: Питер Аутербридж, Мэйко Нгуйен, Конрад Пла, Дмитрий Чеповецкий, Грег Брайк, Максим Рой, Венди Крюсон, Сара Стрэйндж, Джерент Вин Дэйвис, Майкл Ситер
Описание фильма:
Начало XXI века принесло жителям Земли новые проблемы. В руках террористов с университетскими дипломами оказалось не только старое биологическое оружие ― возбудители чумы и сибирской язвы, но и новые, гораздо более опасные микроорганизмы. Вирусы гриппа начали мутировать с необыкновенной скоростью. Появились и совсем неизвестные ученым возбудители болезней. Человечеству стали грозить все более страшные эпидемии.
Чтобы бороться с новыми угрозами, в Канаде была создана передовая биотехнологическая лаборатория NorBAC, или Северо-Американская комиссия по биотехнологиям. Ее возглавляет известнейший ученый Дэвид Сандстрем (Питер Аутербридж). Опытные специалисты под его руководством помогают решать самые сложные проблемы с инфекциями по всей Северной Америке. Причем далеко не все расследования NorBAC связаны только с химией, биотехнологией и медициной. Ученым все чаще приходится отстаивать свою независимость от властей, делать сложный нравственный или политический выбор…
Продолжительность: 50 x ~00:50:00
Качество видео: DVDRip
Сэмпл: Скачать
Видеокодек: Xvid
Битрейт видео: ~~882 Кбит/сек
Размер кадра: 624х352
Аудиокодек: MP3
Битрейт аудио: 128 Кбит/сек- -

MediaInfo

Формат : AVI
Формат/Информация : Audio Video Interleave
Размер файла : 395 Мбайт
Продолжительность : 47 м.
Общий поток : 1160 Кбит/сек
Программа кодирования : VirtualDubMod 1.5.10.2 (build 2540/release)
Библиотека кодирования : VirtualDubMod build 2540/release
Видео
Идентификатор : 0
Формат : MPEG-4 Visual
Профиль формата : Advanced Simple@L5
Параметр BVOP формата : 2
Параметр QPel формата : Нет
Параметр GMC формата : Без точки перехода
Параметр матрицы формата : Default (H.263)
Режим смешивания : Сжатый битовый поток
Идентификатор кодека : XVID
Идентификатор кодека/Подсказка : XviD
Продолжительность : 47 м.
Битрейт : 882 Кбит/сек
Ширина : 624 пикс.
Высота : 352 пикс.
Соотношение сторон : 16:9
Частота кадров : 23,976 кадр/сек
Цветовое пространство : YUV
Подвыборка цветности : 4:2:0
Битовая глубина : 8 бит
Тип развёртки : Прогрессивная
Метод сжатия : С потерями
Бит/(Пиксели*Кадры) : 0.167
Размер потока : 301 Мбайт (76%)
Библиотека кодирования : XviD 1.2.0SMP (UTC 2006-01-08)
Аудио #1
Идентификатор : 1
Формат : MPEG Audio
Версия формата : Version 1
Профиль формата : Layer 3
Режим : Joint stereo
Расширение режима : MS Stereo
Идентификатор кодека : 55
Идентификатор кодека/Подсказка : MP3
Продолжительность : 47 м.
Вид битрейта : Постоянный
Битрейт : 128 Кбит/сек
Каналы : 2 канала
Частота : 48,0 КГц
Метод сжатия : С потерями
Размер потока : 43,6 Мбайт (11%)
Выравнивание : Соединение по промежуткам
Продолжительность промежутка : 42 мс. (1,00 видеокадр)
Время предзагрузки промежутка : 504 ms
Аудио #2
Идентификатор : 2
Формат : MPEG Audio
Версия формата : Version 1
Профиль формата : Layer 3
Режим : Joint stereo
Расширение режима : MS Stereo
Идентификатор кодека : 55
Идентификатор кодека/Подсказка : MP3
Продолжительность : 47 м.
Вид битрейта : Переменный
Битрейт : 128 Кбит/сек
Каналы : 2 канала
Частота : 48,0 КГц
Метод сжатия : С потерями
Размер потока : 45,2 Мбайт (11%)
Выравнивание : Соединение по промежуткам
Продолжительность промежутка : 24 мс. (0,58 видеокадр)
Время предзагрузки промежутка : 495 ms
Библиотека кодирования : LAME3.96r
Настройки программы : -m j -V 4 -q 3 -lowpass 17.5 --abr 128
-

_________________
Спорить с женщиной не так тяжело, когда понимаешь, что это бесполезно... (Михаил Мамчич)
Исправили раздачу? Отпишитесь модератору в ЛС с ссылкой на релиз.
[Торрент-статистика]
[Профиль]  [ЛС] 

DarthNihilus

Пол:

Стаж: 5 лет 1 месяц

Сообщений: 1072

Репутация: 166 [+] [-]

Откуда: Антарктида

Пост 12-Мар-2012 12:51 (спустя 14 дней)

[Цитировать] 

Хо! Посмотрел первые две [=3] серии.
А "Кэролайн" похожа на ту, что в СГА первый сезон была начальницей. И ещё похожа на С. Уивер, особенно когда улыбается и лицо сбоку показывают.
И...Да...что, события начала первого сезона, перед "6 месяцев назад" покажут в конце первого сезона? ab
И второе, почему сериал понравился - нет блондинок в главных роляк!

_________________
[Нет сидов - включите DHT]
[Торрент-статистика]
[Профиль]  [ЛС] 
Показать сообщения:    
Ответить на тему

Текущее время: Сегодня 10:54

Часовой пояс: GMT + 4



Вы не можете начинать темы
Вы не можете отвечать на сообщения
Вы не можете редактировать свои сообщения
Вы не можете удалять свои сообщения
Вы не можете голосовать в опросах
Вы не можете прикреплять файлы к сообщениям
Вы не можете скачивать файлы