Гримм / Grimm / 3 сезон / серия 1-22 из 22 (Норберто Барба, Clark Mathis) [2013 г., Драма, Фэнтези, Ужасы, WEB-DLRip] (LostFilm)

Ответить на тему
 
Автор
Сообщение

3232fox ®

Пол:

Стаж: 3 года 9 месяцев

Сообщений: 614

Репутация: 423 [+] [-]

Откуда: Крым,Россия

Пост 30-Окт-2013 22:37

[Цитировать] 

-Гримм / Grimm--Год выпуска: 2013
Страна: США
Жанр: Драма, Фэнтези, Ужасы
Сезон/Серия: Сезон:3 /Серия 1-22 из 22
Продолжительность: 22 х ~ 00:44:00
Перевод: Профессиональный (многоголосый, закадровый) LostFilm--Режиссер: Норберто Барба, Clark Mathis--В ролях: Дэйв Гвинтоли, Расселл Хорнсби, Битси Таллоч, Сайлас Уэйр Митчелл, Саша Ройз, Регги Ли, Клэр Коффи, Айанна Беркшир, Кейт Бёртон, Тим Бэгли и другие.--Описание: Молодой детектив Ник Бёркхардт является наследником рода Гримм - охотников за нечистью, живущей в мире людей. Все потомки Гриммов обладают ключевой способностью - они могут видеть истинную сущность злых тварей, под какой бы личиной они не скрывались. Соратником Ника становится перевоспитавшийся "Потрошитель" - оборотень Эдди Монро, помогающий ему познавать таинства древней мифологии.--Тип релиза: WEB-DLRip
Контейнер: AVI
Видео кодек: XviD
Аудио кодек: MP3 (MPEG1 Layer 3)
Видео: 720x400 (16:9), 23.976 fps, 1 870 kbps, 0.195 bit/pixel
Аудио: 48 kHz, 2/0 (L,R) ch, ~128 kbps-- --

Скриншоты

MI

General
Complete name : G:\видео\Гримм (Сезон 3) Grimm (2013) WEB-DLRip - LostFilm\Grimm.S03E01.rus.LostFilm.TV.avi
Format : AVI
Format/Info : Audio Video Interleave
File size : 686 MiB
Duration : 46mn 17s
Overall bit rate : 2 071 Kbps
Writing application : Nandub v1.0rc2
Writing library : Nandub build 1853/release
Video
ID : 0
Format : MPEG-4 Visual
Format profile : Simple@L3
Format settings, BVOP : No
Format settings, QPel : No
Format settings, GMC : No warppoints
Format settings, Matrix : Default (H.263)
Codec ID : XVID
Codec ID/Hint : XviD
Duration : 46mn 17s
Bit rate : 1 870 Kbps
Width : 720 pixels
Height : 400 pixels
Display aspect ratio : 16:9
Frame rate : 29.970 fps
Color space : YUV
Chroma subsampling : 4:2:0
Bit depth : 8 bits
Scan type : Progressive
Compression mode : Lossy
Bits/(Pixel*Frame) : 0.217
Stream size : 619 MiB (90%)
Writing library : XviD 1.2.1 (UTC 2008-12-04)
Audio
ID : 1
Format : MPEG Audio
Format version : Version 1
Format profile : Layer 3
Mode : Joint stereo
Mode extension : MS Stereo
Codec ID : 55
Codec ID/Hint : MP3
Duration : 46mn 17s
Bit rate mode : Variable
Bit rate : 192 Kbps
Channel(s) : 2 channels
Sampling rate : 48.0 KHz
Compression mode : Lossy
Stream size : 62.1 MiB (9%)
Alignment : Aligned on interleaves
Interleave, duration : 24 ms (0.72 video frame)
Interleave, preload duration : 495 ms
Writing library : LAME3.97b
Encoding settings : -m j -V 4 -q 3 -lowpass 18.6 --abr 192


Последний раз редактировалось: 3232fox (2015-01-20 18:23), всего редактировалось 22 раз(а)
[Торрент-статистика]
[Профиль]  [ЛС] 

3232fox ®

Пол:

Стаж: 3 года 9 месяцев

Сообщений: 614

Репутация: 423 [+] [-]

Откуда: Крым,Россия

Пост 06-Ноя-2013 17:19 (спустя 6 дней)

[Цитировать] 

Конец
[Торрент-статистика]
[Профиль]  [ЛС] 
Показать сообщения:    
Ответить на тему

Текущее время: Сегодня 22:15

Часовой пояс: GMT + 4



Вы не можете начинать темы
Вы не можете отвечать на сообщения
Вы не можете редактировать свои сообщения
Вы не можете удалять свои сообщения
Вы не можете голосовать в опросах
Вы не можете прикреплять файлы к сообщениям
Вы не можете скачивать файлы