Викинги / Vikings / Сезон: 3 / Серии: 1 из 10 (Йохан Ренк, Киаран Доннелли, Кен Джиротти) [2015, боевик, драма, военный, история, WEB-DLRip] MVO (LostFilm)

Ответить на тему
 
Автор
Сообщение

ArtZak ®

Пол:

Стаж: 5 лет 1 месяц

Сообщений: 3008

Репутация: 1363 [+] [-]

Откуда: Россия

Пост 25-Фев-2015 18:50

[Цитировать] 

-Викинги | Vikings-- Год выпуска: 2015
Страна: Ирландия, Канада
Жанр: боевик, драма, военный, история
Продолжительность: ~ 00:43:00-Перевод: Профессиональный (многоголосый закадровый) | LostFilm-Режиссёр: Йохан Ренк, Киаран Доннелли, Кен Джиротти и др.-В ролях: Трэвис Фиммел, Клайв Стэнден, Гэбриел Бирн, Кэтрин Уинник, Джессалин Гилсиг, Джордж Благден, Густаф Скарсгард, Торбьорн Харр, Владимир Кулих, Донал Лог, Айван Кэй, Мод Хирст, Эрик Хиггинс, Герард Маккарти, Юко Ахола, Эми Де Брюн, Сэм Смит, Билл Гибсон, Кевин Мюррэй-Описание: История повествует о приключениях величайшего героя своего времени – Рагнара Лодброка. В сериале показан Рагнар со своим племенем братьев-викингов и его семьёй в процессе становления королём всех племён викингов. Рагнар – бесстрашный воин, и религиозный викинг, который объединяет все племена и распространяет среди них поклонение скандинавским богам. Согласно легенде, он – прямой потомок Одина, бога войны и воителей.- -| Ссылка на предыдущие и альтернативные раздачи-Качество: WEB-DLRip
Формат: AVI
Видео: XviD, 720x400 (16:9), 23,976 fps, ~1250 kbps
Аудио 1: MP3, 48 kHz, 2 ch, 128 kbps - Russian
Субтитры: отсутствуют-

Релиз

рип: qqss44
Перевод и озвучание: LostFilm

MediaInfo

Код:
Общее
Формат                                   : AVI
Формат/Информация                        : Audio Video Interleave
Размер файла                             : 444 Мбайт
Продолжительность                        : 45 м.
Общий поток                              : 1373 Кбит/сек
Программа кодирования                    : VirtualDubMod 1.5.10.3 | www.virtualdub-fr.org || (build 2550/release)
Библиотека кодирования                   : VirtualDubMod build 2550/release
Видео
Идентификатор                            : 0
Формат                                   : MPEG-4 Visual
Профиль формата                          : Advanced Simple@L5
Параметр BVOP формата                    : 1
Параметр QPel формата                    : Нет
Параметр GMC формата                     : Без точки перехода
Параметр матрицы формата                 : Default (MPEG)
Идентификатор кодека                     : XVID
Идентификатор кодека/Подсказка           : XviD
Продолжительность                        : 45 м.
Битрейт                                  : 1236 Кбит/сек
Ширина                                   : 720 пикселей
Высота                                   : 400 пикселей
Соотношение сторон                       : 16:9
Частота кадров                           : 23,976 кадра/сек
Цветовое пространство                    : YUV
Субдискретизация насыщенности            : 4:2:0
Битовая глубина                          : 8 бит
Тип развёртки                            : Прогрессивная
Метод сжатия                             : С потерями
Бит/(Пиксели*Кадры)                      : 0.179
Размер потока                            : 399 Мбайт (90%)
Библиотека кодирования                   : XviD 73
Аудио
Идентификатор                            : 1
Формат                                   : MPEG Audio
Версия формата                           : Version 1
Профиль формата                          : Layer 3
Режим                                    : Joint stereo
Расширение режима                        : MS Stereo
Идентификатор кодека                     : 55
Идентификатор кодека/Подсказка           : MP3
Продолжительность                        : 45 м.
Вид битрейта                             : Постоянный
Битрейт                                  : 128 Кбит/сек
Каналы                                   : 2 канала
Частота                                  : 48,0 КГц
Метод сжатия                             : С потерями
Размер потока                            : 41,4 Мбайт (9%)
Выравнивание                             : Соединение по промежуткам
Продолжительность промежутка             : 42  мс. (1,00 видеокадр)
Время предзагрузки промежутка            : 504  мс.

Скриншоты

Раздача ведется путем добавления новых серий

Когда раздача ведётся путём добавления новых серий, при каждом добавлении создётся новый торрент. Чтобы начать докачку новой серии, пользователям необходимо сделать следующее:
(1) остановить скачивание,
(2) удалить старый торрент у себя из клиента (старые серии удалять не надо),
(3) скачать новый торрент и запустить его у себя в клиенте вместо старого, при этом указать клиенту путь в старую папку, куда и должно происходить скачивание новых серий.
Ваш клиент при этом должен произвести хеширование (проверку) старой папки (если не производит сам - помогите ему сделать это), и будет докачивать только те серии, которых у вас ещё нет. Старые серии при этом не удаляются, а продолжают раздаваться!
Eсли вы уже удалили старые серии, то предотвратить повторную закачку старых серий можно, отжав галочку в соответсвующих местах при запуске нового торрента. По возможности, желательно не удалять старые серии как можно дольше, чтобы релизёр не столько продолжал раздавать старые серии, а смог сконцентрироваться на новых.
[Торрент-статистика]
[Профиль]  [ЛС] 
Показать сообщения:    
Ответить на тему

Текущее время: Сегодня 06:25

Часовой пояс: GMT + 4



Вы не можете начинать темы
Вы не можете отвечать на сообщения
Вы не можете редактировать свои сообщения
Вы не можете удалять свои сообщения
Вы не можете голосовать в опросах
Вы не можете прикреплять файлы к сообщениям
Вы не можете скачивать файлы