Бесстыжие / Бесстыдники / Shameless (US) / Сезон: 1 / Серии: 1-12 из 12 (Марк Майлод, Мими Ледер, Энтони Хемингуэй) [2014 г., драма, комедия, HDRip] MVO (AlexFilm) + Original

Ответить на тему
 
Автор
Сообщение

ArtZak ®

Пол:

Стаж: 5 лет 1 месяц

Сообщений: 3008

Репутация: 1363 [+] [-]

Откуда: Россия

Пост 04-Фев-2015 18:19

[Цитировать] 


Бесстыжие / Бесстыдники / Shameless
«The Gallaghers: Absolutely, Wildly, Unapologetically...»
- Год выпуска: 2011
Страна: США
Жанр: драма, комедия
Сезон/Серия: сезон 4, серии 1-12 из 12
Продолжительность серии: ~00:57:00 / Серия
Перевод: Профессиональный (многоголосый, закадровый) - AlexFilm
Оригинальная аудиодорожка: английская
Субтитры: нет
Режиссер: Марк Майлод, Мими Ледер, Энтони Хемингуэй
- -В ролях:
Джоан Кьюсак, Ноэль Фишер, Уильям Х. Мэйси, Эмми Россам, Шанола Хэмптон, Итан Каткоски, Стив Хоуи, Эмма Кинни, Джереми Аллен Уайт, Камерон Монахэн и др.

Описание:
В сериале рассказывается о чудной многодетной семейке. Отец семейства - Фрэнк круглыми сутками доставляет неприятности своим детям, ведя беспорядочную половую жизнь, а также, выпивая и употребляя наркотики, к счастью на последнее у него редко бывают средства. Иной раз у Фрэнка проскакивают нотки просветления, но это происходит довольно редко, в основном он циничен и аморален. Дети постигают самостоятельную жизнь, во время беспробудных пьянок своего отца.
Ссылка на предыдущие и альтернативные раздачи

Качество: HDRip
Формат: AVI
Видео: MPEG4, XviD, 624x352 (16:9), 23.976 fps, 1 186 Kbps (0.225 bit/pixel)
Аудио #1: MP3, 48.0 KHz, 2 ch, 128 Kbps, CBR
Аудио #2: MP3, 48.0 KHz, 2 ch, 128 Kbps, VBR

MI

Код:
General
Complete name               : C:\Users\ZzzzZ\Downloads\Shameless.US.s01.AlexFilm\Shameless.US.s01e01.AlexFilm.avi
Format                      : AVI
Format/Info                 : Audio Video Interleave
File size                   : 603 MiB
Duration                    : 57mn 43s
Overall bit rate mode       : Variable
Overall bit rate            : 1 461 Kbps
Writing application         : VirtualDubMod 1.5.10.2 (build 2540/release)
Writing library             : VirtualDubMod build 2540/release
Video
ID                          : 0
Format                      : MPEG-4 Visual
Format profile              : Advanced Simple@L5
Format settings, BVOP       : 2
Format settings, QPel       : No
Format settings, GMC        : No warppoints
Format settings, Matrix     : Default (H.263)
Muxing mode                 : Packed bitstream
Codec ID                    : XVID
Codec ID/Hint               : XviD
Duration                    : 57mn 43s
Bit rate                    : 1 186 Kbps
Width                       : 624 pixels
Height                      : 352 pixels
Display aspect ratio        : 16:9
Frame rate                  : 23.976 fps
Color space                 : YUV
Chroma subsampling          : 4:2:0
Bit depth                   : 8 bits
Scan type                   : Progressive
Compression mode            : Lossy
Bits/(Pixel*Frame)          : 0.225
Stream size                 : 490 MiB (81%)
Writing library             : XviD 1.2.1 (UTC 2008-12-04)
Audio #1
ID                          : 1
Format                      : MPEG Audio
Format version              : Version 1
Format profile              : Layer 3
Mode                        : Joint stereo
Mode extension              : MS Stereo
Codec ID                    : 55
Codec ID/Hint               : MP3
Duration                    : 57mn 43s
Bit rate mode               : Constant
Bit rate                    : 128 Kbps
Channel(s)                  : 2 channels
Sampling rate               : 48.0 KHz
Compression mode            : Lossy
Stream size                 : 52.9 MiB (9%)
Alignment                   : Aligned on interleaves
Interleave, duration        : 42 ms (1.00 video frame)
Interleave, preload duratio : 504 ms
Audio #2
ID                          : 2
Format                      : MPEG Audio
Format version              : Version 1
Format profile              : Layer 3
Mode                        : Joint stereo
Codec ID                    : 55
Codec ID/Hint               : MP3
Duration                    : 57mn 43s
Bit rate mode               : Variable
Bit rate                    : 128 Kbps
Channel(s)                  : 2 channels
Sampling rate               : 48.0 KHz
Compression mode            : Lossy
Stream size                 : 53.5 MiB (9%)
Alignment                   : Aligned on interleaves
Interleave, duration        : 24 ms (0.58 video frame)
Interleave, preload duratio : 142 ms
Writing library             : LAME3.90.
Encoding settings           : -m j -V 4 -q 2 -lowpass 17.6 --abr 128

Скриншоты

✦ В сериале присутствуют сцены с обнаженной натурой и ненормативная лексика! ✦-
[Торрент-статистика]
[Профиль]  [ЛС] 
Показать сообщения:    
Ответить на тему

Текущее время: Сегодня 04:19

Часовой пояс: GMT + 4



Вы не можете начинать темы
Вы не можете отвечать на сообщения
Вы не можете редактировать свои сообщения
Вы не можете удалять свои сообщения
Вы не можете голосовать в опросах
Вы не можете прикреплять файлы к сообщениям
Вы не можете скачивать файлы