Сотня / The 100 / Сезон: 2 / Серии: 1-16 из 16 (Дин Уайт, Майрзи Алмас, Мэтт Барбер) [2014-2015, фантастика, драма, HDTVRip 400p] (ColdFilm)

Ответить на тему
 
Автор
Сообщение

ArtZak ®

Пол:

Стаж: 5 лет 1 месяц

Сообщений: 3008

Репутация: 1363 [+] [-]

Откуда: Россия

Пост 30-Янв-2015 13:21

[Цитировать] 

-Сотня / The 100- Год выпуска: 2014-2015
Страна: США
Жанр: фантастика, драма
Продолжительность серии: ~40 мин.
Перевод: Любительский, двухголосый закадровый (ColdFilm)
Режиссёр: Дин Уайт, Майрзи Алмас, Мэтт Барбер
В ролях:
Элайза Тейлор, Мари Авгеропулос, Боб Морли, Томас МакДонелл, Линдси Морган, Пейдж Турко, Генри Йен Кьюсик, Исайя Вашингтон, Девон Бостик, Кристофер Ларкин
Описание:
События в сериале начинают разворачиваться по прошествии девяносто семи лет после того как всю цивилизацию уничтожила страшная атомная война. Высоко в космосе на орбите Земли летает большой космический корабль, именно здесь находятся те, кто выжил после страшной катастрофы. Они единственные кто пережил этот ужасный катаклизм который устроило человечество. Именно с этого последнего пристанища людей на Землю отправляют космический челнок на котором находятся сто малолетних преступников…- -Качество: HDTVRip 400p
Формат: AVI
Видео: xvid, 720x400 (16:9), 25.000 fps, 1 282 Kbps (0.178 bit/pixel)
Аудио: MP3, 44.1 KHz, 2 ch, 192 Kbps, CBR
Субтитры: отсутствуют

MediaInfo

Код:
General
Complete name               : C:\Users\ZzzzZ\Downloads\Сотня. Второй сезон\Sotnya.S02E10.HDTVRip.ColdFilm.avi
Format                      : AVI
Format/Info                 : Audio Video Interleave
File size                   : 443 MiB
Duration                    : 41mn 44s
Overall bit rate            : 1 484 Kbps
Writing application         : VirtualDubMod 1.5.10.2 (build 2540/release)
Writing library             : VirtualDubMod build 2540/release
Video
ID                          : 0
Format                      : xvid
Codec ID                    : xvid
Duration                    : 41mn 44s
Bit rate                    : 1 282 Kbps
Width                       : 720 pixels
Height                      : 400 pixels
Display aspect ratio        : 16:9
Frame rate                  : 25.000 fps
Bits/(Pixel*Frame)          : 0.178
Stream size                 : 383 MiB (86%)
Audio
ID                          : 1
Format                      : MPEG Audio
Format version              : Version 1
Format profile              : Layer 3
Codec ID                    : 55
Codec ID/Hint               : MP3
Duration                    : 41mn 44s
Bit rate mode               : Constant
Bit rate                    : 192 Kbps
Channel(s)                  : 2 channels
Sampling rate               : 44.1 KHz
Compression mode            : Lossy
Stream size                 : 57.3 MiB (13%)
Alignment                   : Split accross interleaves
Interleave, duration        : 40 ms (1.00 video frame)
Interleave, preload duratio : 500 ms

Скриншоты

[Торрент-статистика]
[Профиль]  [ЛС] 

ArtZak ®

Пол:

Стаж: 5 лет 1 месяц

Сообщений: 3008

Репутация: 1363 [+] [-]

Откуда: Россия

Пост 20-Май-2015 20:06 (спустя 3 месяца 21 день)

[Цитировать] 

14-16 серии.
[Торрент-статистика]
[Профиль]  [ЛС] 
Показать сообщения:    
Ответить на тему

Текущее время: Сегодня 18:18

Часовой пояс: GMT + 4



Вы не можете начинать темы
Вы не можете отвечать на сообщения
Вы не можете редактировать свои сообщения
Вы не можете удалять свои сообщения
Вы не можете голосовать в опросах
Вы не можете прикреплять файлы к сообщениям
Вы не можете скачивать файлы