Новости / The Newsroom / Сезон 1 / Серии 1-10 из 10 (Алан Пол, Грег Моттола, Лесли Линка Глаттер) [2012 г., Драма, HDTVRip] MVO Rumedia + Original

Ответить на тему
 
Автор
Сообщение

awk05 ®

Пол:

Стаж: 4 года 5 месяцев

Сообщений: 1352

Репутация: 275 [+] [-]

Откуда: Западная Украина Ривне

Пост 10-Фев-2014 18:36

[Цитировать] 

--Новости (Отдел новостей) / The Newsroom«Мы будем следить за развитием событий»-- Год выпуска: 2012
Страна: HBO (США)
Жанр: Драма
Сезон/Серия: Сезон:1 /Серия 1-10 из 10
Продолжительность: 10 х ~ 01:13:00
Перевод: Многоголосое закадровое (Rumedia)
Субтитры: отсутствуют--Режиссер: Алан Пол, Грег Моттола, Лесли Линка Глаттер--В ролях: Джефф Дэниелс (Will McAvoy), Эмили Мортимер (MacKenzie McHale), Джон Галлахер мл. (Jim Harper), Элисон Пилл (Maggie Jordan), Томас Садоски (Don Keefer), Дев Патель (Neal Sampat), Оливия Манн (Sloan Sabbith), Сэм Уотерстон (Charlie Skinner), Крис Чок (Gary Cooper), Джон Ф. Карпентер (Herb Wilson)--Описание: Герой сериала Новости - звезда канала ACN, ведущий десятичасовых вечерних новостей Уилл Макэвой, который после отпуска узнает, что его команда ушла к новому ведущему, с ним осталось всего три человека. На этом плохие новости не заканчиваются, студия подписала трехлетний контракт с Макензи Макхэйл, которая будет занимать должность продюсера новостного блока, а она бывшая подружка Уилла и расстались они врагами.
Сериал от создателя "Социальной сети" и "Западного крыла" расскажет о трудовых буднях телеведущего и его сподвижников на новостном канале....--Качество: HDTVRip
Формат: AVI
Видео кодек: XviD
Аудио кодек: MP3
Видео: 720x400 (16:9), 23,976 кадра/сек, 1620 Кбит/сек, 0.235 Бит/(Пиксели*Кадры)
Аудио 1: 2 канала Front: L R, 48,0 КГц, 128 Кбит/сек, 16 бит [RUS]
Аудио 2: 2 канала Front: L R, 48,0 КГц, 128 Кбит/сек, 16 бит [ENG]-- --

MediaInfo

Общее
Полное имя : G:\тест\The.Newsroom.s01.HDTVRip.NewStudio.TV\The.Newsroom.s01e01.HDTVRip.NewStudio.TV.avi
Формат : AVI
Формат/Информация : Audio Video Interleave
Размер файла : 1000 Мбайт
Продолжительность : 1 ч. 13 м.
Общий поток : 1890 Кбит/сек
Программа кодирования : VirtualDubMod 1.5.10.2 (build 2540/release)
Библиотека кодирования : VirtualDubMod build 2540/release
Видео
Идентификатор : 0
Формат : MPEG-4 Visual
Профиль формата : Advanced Simple@L5
Параметр BVOP формата : 2
Параметр QPel формата : Нет
Параметр GMC формата : Без точки перехода
Параметр матрицы формата : Default (MPEG)
Идентификатор кодека : XVID
Идентификатор кодека/Подсказка : XviD
Продолжительность : 1 ч. 13 м.
Битрейт : 1620 Кбит/сек
Ширина : 720 пикселей
Высота : 400 пикселей
Соотношение сторон : 16:9
Частота кадров : 23,976 кадра/сек
Цветовое пространство : YUV
Субдискретизация насыщенности : 4:2:0
Битовая глубина : 8 бит
Тип развёртки : Прогрессивная
Метод сжатия : С потерями
Бит/(Пиксели*Кадры) : 0.235
Размер потока : 857 Мбайт (86%)
Библиотека кодирования : XviD 64
Аудио #1
Идентификатор : 1
Формат : MPEG Audio
Версия формата : Version 1
Профиль формата : Layer 3
Режим : Joint stereo
Расширение режима : MS Stereo
Идентификатор кодека : 55
Идентификатор кодека/Подсказка : MP3
Продолжительность : 1 ч. 13 м.
Вид битрейта : Постоянный
Битрейт : 128 Кбит/сек
Каналы : 2 канала
Частота : 48,0 КГц
Метод сжатия : С потерями
Размер потока : 67,7 Мбайт (7%)
Выравнивание : Соединение по промежуткам
Продолжительность промежутка : 42 мс. (1,00 видеокадр)
Время предзагрузки промежутка : 504 мс.
Аудио #2
Идентификатор : 2
Формат : MPEG Audio
Версия формата : Version 1
Профиль формата : Layer 3
Режим : Joint stereo
Расширение режима : MS Stereo
Идентификатор кодека : 55
Идентификатор кодека/Подсказка : MP3
Продолжительность : 1 ч. 13 м.
Вид битрейта : Постоянный
Битрейт : 128 Кбит/сек
Каналы : 2 канала
Частота : 48,0 КГц
Метод сжатия : С потерями
Размер потока : 67,7 Мбайт (7%)
Выравнивание : Соединение по промежуткам
Продолжительность промежутка : 42 мс. (1,00 видеокадр)
Время предзагрузки промежутка : 504 мс.

_________________
[Торрент-статистика]
[Профиль]  [ЛС] 
Показать сообщения:    
Ответить на тему

Текущее время: Сегодня 04:17

Часовой пояс: GMT + 4



Вы не можете начинать темы
Вы не можете отвечать на сообщения
Вы не можете редактировать свои сообщения
Вы не можете удалять свои сообщения
Вы не можете голосовать в опросах
Вы не можете прикреплять файлы к сообщениям
Вы не можете скачивать файлы