Мафиоза / Mafiosa, le clan / Сезон: 1-4 / Серии: 1-32 из 32(Эрик Рошан, Луи Шокетт) [2006-2012, Криминал, Драма, DVDRip] DVO компания КіТ [Ukr, Fre]

Ответить на тему
 
Автор
Сообщение

awk05 ®

Пол:

Стаж: 4 года 5 месяцев

Сообщений: 1352

Репутация: 275 [+] [-]

Откуда: Западная Украина Ривне

Пост 26-Сен-2014 16:48

[Цитировать] 

--Мафиоза / Mafiosa, le clan-- Год выпуска: 2006-2012
Страна: Франция
Жанр: Криминал, Драма
Сезон/Серия: Сезон:1-4 / Серия 1-32 из 32
Продолжительность: ~00:50:00
Перевод: Профессиональный (двухголосый закадровый) + Original
Озвучка / Автор перевода: компания КіТ
Субтитры: отсутствуют--Режиссёр: Эрик Рошан, Луи Шокетт--В ролях: Элен Фийер, Тьерри Нёвик, Phareelle Onoyan, Эрик Фратичелли, Фридерик Грациани, Пьер-Мари Москони, Жан-Пьер Кальфон, Véronique Volta, Фабрицио Ронджоне, Каролин Баер--Описание: События французского сериала “Мафиоза” переносят нас на остров Корсику. Жители взбудоражены недавно произошедшим убийством. Неизвестный покусился на жизнь самого Франсуа Паоли, возглавлявшего самый влиятельный клан, убив его прямо посреди улицы, на глазах у множества прохожих.
Неожиданно для всех, место главы клана занимает 30-летняя Сандра, которую покойный шеф прочил в свои преемники. Однако, вся верхушка клана Паоли гудит - все возмущены тем, что теперь им придется подчиниться женщине! Единственный человек, который поддерживает Сандру - это её брат Жан-Мишель, который не колеблясь становится на защиту сестры.
На протяжении всех серий, мы будем следить за тем, как Сандра будет отстаивать свою власть и при этом руководить всем кланом. А дел им предстоит провернуть немалое количество. Это и кража оружия у таможенников, и транспортировка ворованных драгоценностей, отмывание крупных сумм, а также торговля наркотиками.
Наша мафиоза оказалась один на один с жестоким и беспринципным миром мужчин, живущих в насилии и ей придется сделать невозможное - посредством женских уловок, манипуляций и соблазнений, восстановить свой авторитет и усилить влияние клана. Только так она сможет доказать всем и себе в том числе, что она - достойная преемница покойного Франсуа Паоли.--Качество видео: DVDRip
Формат видео: AVI
Видео кодек: MPEG4, XviD
Аудио кодек: AC-3, MP3
Видео 1 сезон: MPEG4, XviD, 576x304 (1.895), 25.000 fps, 809 Kbps (0.185 bit/pixel)
Видео 2-4 сезоны: MPEG4, XviD, 640x352 (16:9), 25.000 fps, ~1 107 Kbps (~ 0.196 bit/pixel)
Аудио 1: AC-3, 48.0 KHz, 2 ch, 128 Kbps, CBR, 16 bits [Украинский]
Аудио 2: MP3, 48.0 KHz, 2 ch, 128 Kbps, CBR, 16 bits [Французский] -- --Внимание Русского перевода нет, 1 сезон есть в русской озвучке на трекере, 2-4 сезона в русской озвучке на просторах интернета нет

Кадры из фильма

Кадры из фильма - 1 сезон

Кадры из фильма - 2 сезон

Кадры из фильма - 3 сезон

Кадры из фильма - 4 сезон

Тех. данные (MI)

Тех. данные (MI) - 1 сезон

Код:
Общее
Полное имя                               : G:\Сериалы\Mafiosa\Mafiosa 1\Mafiosa, le clan - S01E01 (2006) DVDRip [Ukr, Fre].avi
Формат                                   : AVI
Формат/Информация                        : Audio Video Interleave
Размер файла                             : 397 Мбайт
Продолжительность                        : 49 м.
Общий поток                              : 1121 Кбит/сек
Программа кодирования                    : VirtualDubMod 1.5.10.2 (build 2540/release)
Библиотека кодирования                   : VirtualDubMod build 2540/release
Видео
Идентификатор                            : 0
Формат                                   : MPEG-4 Visual
Профиль формата                          : Advanced Simple@L5
Параметр BVOP формата                    : 2
Параметр QPel формата                    : Нет
Параметр GMC формата                     : Без точки перехода
Параметр матрицы формата                 : Default (H.263)
Режим смешивания                         : Сжатый битовый поток
Идентификатор кодека                     : XVID
Идентификатор кодека/Подсказка           : XviD
Продолжительность                        : 49 м.
Битрейт                                  : 850 Кбит/сек
Ширина                                   : 576 пикселей
Высота                                   : 304 пикселя
Соотношение сторон                       : 1,895
Частота кадров                           : 25,000 кадров/сек
Цветовое пространство                    : YUV
Субдискретизация насыщенности            : 4:2:0
Битовая глубина                          : 8 бит
Тип развёртки                            : Прогрессивная
Метод сжатия                             : С потерями
Бит/(Пиксели*Кадры)                      : 0.194
Размер потока                            : 301 Мбайт (76%)
Библиотека кодирования                   : XviD 0039 build=2005.09.16 (UTC 2005-09-16)
Аудио #1
Идентификатор                            : 1
Формат                                   : AC-3
Формат/Информация                        : Audio Coding 3
Расширение режима                        : CM (complete main)
Параметр Endianness формата              : Big
Идентификатор кодека                     : 2000
Продолжительность                        : 49 м.
Вид битрейта                             : Постоянный
Битрейт                                  : 128 Кбит/сек
Каналы                                   : 2 канала
Расположение каналов                     : Front: L R
Частота                                  : 48,0 КГц
Битовая глубина                          : 16 бит
Метод сжатия                             : С потерями
Размер потока                            : 45,3 Мбайт (11%)
Выравнивание                             : Разделение по промежуткам
Продолжительность промежутка             : 40  мс. (1,00 видеокадр)
Время предзагрузки промежутка            : 500  мс.
Аудио #2
Идентификатор                            : 2
Формат                                   : MPEG Audio
Версия формата                           : Version 1
Профиль формата                          : Layer 3
Режим                                    : Joint stereo
Расширение режима                        : MS Stereo
Идентификатор кодека                     : 55
Идентификатор кодека/Подсказка           : MP3
Продолжительность                        : 49 м.
Вид битрейта                             : Постоянный
Битрейт                                  : 128 Кбит/сек
Каналы                                   : 2 канала
Частота                                  : 48,0 КГц
Метод сжатия                             : С потерями
Размер потока                            : 45,3 Мбайт (11%)
Выравнивание                             : Соединение по промежуткам
Продолжительность промежутка             : 40  мс. (1,00 видеокадр)
Время предзагрузки промежутка            : 504  мс.

Тех. данные (MI) - 2 сезон

Код:
Общее
Полное имя                               : G:\Сериалы\Mafiosa\Mafiosa 2\Mafiosa - S02E01 (2008) DVDRip [Ukr, Fre].avi
Формат                                   : AVI
Формат/Информация                        : Audio Video Interleave
Размер файла                             : 390 Мбайт
Продолжительность                        : 45 м.
Общий поток                              : 1213 Кбит/сек
Программа кодирования                    : VirtualDubMod 1.5.10.2 (build 2540/release)
Библиотека кодирования                   : VirtualDubMod build 2540/release
Видео
Идентификатор                            : 0
Формат                                   : MPEG-4 Visual
Профиль формата                          : Advanced Simple@L5
Параметр BVOP формата                    : 2
Параметр QPel формата                    : Нет
Параметр GMC формата                     : Без точки перехода
Параметр матрицы формата                 : Default (H.263)
Режим смешивания                         : Сжатый битовый поток
Идентификатор кодека                     : XVID
Идентификатор кодека/Подсказка           : XviD
Продолжительность                        : 45 м.
Битрейт                                  : 942 Кбит/сек
Ширина                                   : 640 пикселей
Высота                                   : 352 пикселя
Соотношение сторон                       : 16:9
Частота кадров                           : 25,000 кадров/сек
Цветовое пространство                    : YUV
Субдискретизация насыщенности            : 4:2:0
Битовая глубина                          : 8 бит
Тип развёртки                            : Прогрессивная
Метод сжатия                             : С потерями
Бит/(Пиксели*Кадры)                      : 0.167
Размер потока                            : 303 Мбайт (78%)
Библиотека кодирования                   : XviD 1.1.2 (UTC 2006-11-01)
Аудио #1
Идентификатор                            : 1
Формат                                   : AC-3
Формат/Информация                        : Audio Coding 3
Профиль формата                          : Dolby Digital
Расширение режима                        : CM (complete main)
Параметр Endianness формата              : Big
Идентификатор кодека                     : 2000
Продолжительность                        : 45 м.
Вид битрейта                             : Постоянный
Битрейт                                  : 128 Кбит/сек
Каналы                                   : 2 канала
Расположение каналов                     : Front: L R
Частота                                  : 48,0 КГц
Битовая глубина                          : 16 бит
Метод сжатия                             : С потерями
Размер потока                            : 41,2 Мбайт (11%)
Выравнивание                             : Разделение по промежуткам
Продолжительность промежутка             : 40  мс. (1,00 видеокадр)
Время предзагрузки промежутка            : 500  мс.
Аудио #2
Идентификатор                            : 2
Формат                                   : MPEG Audio
Версия формата                           : Version 1
Профиль формата                          : Layer 3
Режим                                    : Joint stereo
Расширение режима                        : MS Stereo
Идентификатор кодека                     : 55
Идентификатор кодека/Подсказка           : MP3
Продолжительность                        : 45 м.
Вид битрейта                             : Постоянный
Битрейт                                  : 128 Кбит/сек
Каналы                                   : 2 канала
Частота                                  : 48,0 КГц
Метод сжатия                             : С потерями
Размер потока                            : 41,2 Мбайт (11%)
Выравнивание                             : Соединение по промежуткам
Продолжительность промежутка             : 40  мс. (1,00 видеокадр)
Время предзагрузки промежутка            : 504  мс.

Тех. данные (MI) - 3 сезон

Код:
Общее
Полное имя                               : G:\Сериалы\Mafiosa\Mafiosa 3\Mafiosa - S03E01 (2010) DVDRip [Ukr, Fre].avi
Формат                                   : AVI
Формат/Информация                        : Audio Video Interleave
Размер файла                             : 493 Мбайт
Продолжительность                        : 50 м.
Общий поток                              : 1377 Кбит/сек
Программа кодирования                    : VirtualDubModUkr 1.5.10.2 (build 2542/release)
Библиотека кодирования                   : VirtualDubMod build 2542/release
Видео
Идентификатор                            : 0
Формат                                   : MPEG-4 Visual
Профиль формата                          : Advanced Simple@L5
Параметр BVOP формата                    : 1
Параметр QPel формата                    : Нет
Параметр GMC формата                     : Без точки перехода
Параметр матрицы формата                 : Default (H.263)
Идентификатор кодека                     : XVID
Идентификатор кодека/Подсказка           : XviD
Продолжительность                        : 50 м.
Битрейт                                  : 1107 Кбит/сек
Ширина                                   : 640 пикселей
Высота                                   : 352 пикселя
Соотношение сторон                       : 16:9
Частота кадров                           : 25,000 кадров/сек
Цветовое пространство                    : YUV
Субдискретизация насыщенности            : 4:2:0
Битовая глубина                          : 8 бит
Тип развёртки                            : Прогрессивная
Метод сжатия                             : С потерями
Бит/(Пиксели*Кадры)                      : 0.196
Размер потока                            : 396 Мбайт (80%)
Библиотека кодирования                   : XviD 1.2.1 (UTC 2008-12-04)
Аудио #1
Идентификатор                            : 1
Формат                                   : AC-3
Формат/Информация                        : Audio Coding 3
Расширение режима                        : CM (complete main)
Параметр Endianness формата              : Big
Идентификатор кодека                     : 2000
Продолжительность                        : 50 м.
Вид битрейта                             : Постоянный
Битрейт                                  : 128 Кбит/сек
Каналы                                   : 2 канала
Расположение каналов                     : Front: L R
Частота                                  : 48,0 КГц
Битовая глубина                          : 16 бит
Метод сжатия                             : С потерями
Размер потока                            : 45,8 Мбайт (9%)
Выравнивание                             : Разделение по промежуткам
Продолжительность промежутка             : 40  мс. (1,00 видеокадр)
Время предзагрузки промежутка            : 500  мс.
Аудио #2
Идентификатор                            : 2
Формат                                   : MPEG Audio
Версия формата                           : Version 1
Профиль формата                          : Layer 3
Режим                                    : Joint stereo
Идентификатор кодека                     : 55
Идентификатор кодека/Подсказка           : MP3
Продолжительность                        : 50 м.
Вид битрейта                             : Постоянный
Битрейт                                  : 128 Кбит/сек
Каналы                                   : 2 канала
Частота                                  : 48,0 КГц
Метод сжатия                             : С потерями
Размер потока                            : 45,8 Мбайт (9%)
Выравнивание                             : Соединение по промежуткам
Продолжительность промежутка             : 40  мс. (1,00 видеокадр)
Время предзагрузки промежутка            : 504  мс.

Тех. данные (MI) - 4 сезон

Код:
Общее
Полное имя                               : G:\Сериалы\Mafiosa\Mafiosa 4\Mafiosa - S04E01 (2012) DVDRip [Ukr, Fre].avi
Формат                                   : AVI
Формат/Информация                        : Audio Video Interleave
Размер файла                             : 496 Мбайт
Продолжительность                        : 53 м.
Общий поток                              : 1303 Кбит/сек
Программа кодирования                    : VirtualDubModUkr 1.5.10.2 (build 2542/release)
Библиотека кодирования                   : VirtualDubMod build 2542/release
Видео
Идентификатор                            : 0
Формат                                   : MPEG-4 Visual
Профиль формата                          : Advanced Simple@L5
Параметр BVOP формата                    : 1
Параметр QPel формата                    : Нет
Параметр GMC формата                     : Без точки перехода
Параметр матрицы формата                 : Default (H.263)
Режим смешивания                         : Сжатый битовый поток
Идентификатор кодека                     : XVID
Идентификатор кодека/Подсказка           : XviD
Продолжительность                        : 53 м.
Битрейт                                  : 1033 Кбит/сек
Ширина                                   : 640 пикселей
Высота                                   : 352 пикселя
Соотношение сторон                       : 16:9
Частота кадров                           : 25,000 кадров/сек
Цветовое пространство                    : YUV
Субдискретизация насыщенности            : 4:2:0
Битовая глубина                          : 8 бит
Тип развёртки                            : Прогрессивная
Метод сжатия                             : С потерями
Бит/(Пиксели*Кадры)                      : 0.183
Размер потока                            : 393 Мбайт (79%)
Библиотека кодирования                   : XviD 1.2.1 (UTC 2008-12-04)
Аудио #1
Идентификатор                            : 1
Формат                                   : AC-3
Формат/Информация                        : Audio Coding 3
Расширение режима                        : CM (complete main)
Параметр Endianness формата              : Big
Идентификатор кодека                     : 2000
Продолжительность                        : 53 м.
Вид битрейта                             : Постоянный
Битрейт                                  : 128 Кбит/сек
Каналы                                   : 2 канала
Расположение каналов                     : Front: L R
Частота                                  : 48,0 КГц
Битовая глубина                          : 16 бит
Метод сжатия                             : С потерями
Размер потока                            : 48,7 Мбайт (10%)
Выравнивание                             : Разделение по промежуткам
Продолжительность промежутка             : 40  мс. (1,00 видеокадр)
Время предзагрузки промежутка            : 500  мс.
Аудио #2
Идентификатор                            : 2
Формат                                   : MPEG Audio
Версия формата                           : Version 1
Профиль формата                          : Layer 3
Режим                                    : Joint stereo
Расширение режима                        : MS Stereo
Идентификатор кодека                     : 55
Идентификатор кодека/Подсказка           : MP3
Продолжительность                        : 53 м.
Вид битрейта                             : Постоянный
Битрейт                                  : 128 Кбит/сек
Каналы                                   : 2 канала
Частота                                  : 48,0 КГц
Метод сжатия                             : С потерями
Размер потока                            : 48,7 Мбайт (10%)
Выравнивание                             : Соединение по промежуткам
Продолжительность промежутка             : 40  мс. (1,00 видеокадр)
Время предзагрузки промежутка            : 504  мс.

_________________


Последний раз редактировалось: awk05 (2014-11-27 00:50), всего редактировалось 1 раз
[Торрент-статистика]
[Профиль]  [ЛС] 

arabella.kiev

Стаж: 2 года 10 месяцев

Сообщений: 25

Репутация: 43 [+] [-]

Пост 27-Сен-2014 07:11 (спустя 14 часов)

[Цитировать] 

очень понравилось на украинском языке....вот было бы очень хорошо если-бы был раздел фильмов на Украинском языке переводе...совсем особенное когда на Украинском переводе.... спасибо и помогите докачать весь сериал....
[Торрент-статистика]
[Профиль]  [ЛС] 

malikova_m_v

Стаж: 9 месяцев 21 день

Сообщений: 1

Репутация: 0 [+] [-]

Пост 17-Фев-2016 23:35 (спустя 1 год 4 месяца)

[Цитировать] 

скажите, где взять 2 и 3 сезон с русским переводом?
[Торрент-статистика]
[Профиль]  [ЛС] 
Показать сообщения:    
Ответить на тему

Текущее время: Сегодня 19:38

Часовой пояс: GMT + 4



Вы не можете начинать темы
Вы не можете отвечать на сообщения
Вы не можете редактировать свои сообщения
Вы не можете удалять свои сообщения
Вы не можете голосовать в опросах
Вы не можете прикреплять файлы к сообщениям
Вы не можете скачивать файлы