Своя правда (Правосудие) / Justified / Сезон: 5 / Серии: 1-13 (13) (Адам Аркин, Джон Эвнет, Питер Уэрнер) [2014, боевик, драма, криминал, WEB-DL 720p] MVO (Студия Jaskier) + Original

Ответить на тему
 
Автор
Сообщение

awk05 ®

Пол:

Стаж: 4 года 5 месяцев

Сообщений: 1352

Репутация: 275 [+] [-]

Откуда: Западная Украина Ривне

Пост 22-Сен-2014 23:47

[Цитировать] 

--Своя правда (Правосудие) / Justified-- Год выпуска: 2014
Страна: США | FX Productions
Жанр: боевик, триллер, драма, криминал
Сезон/Серия: Сезон:5 / Серия 1-13 из 13
Продолжительность: 13 х 00:46:00 минут
Перевод: профессиональный многоголосый закадровый + оригинал
Озвучка / Автор перевода: (Студия Jaskier)
Субтитры: Английские--Режиссёр: Адам Аркин, Джон Эвнет, Питер Уэрнер--В ролях: Тимоти Олифант, Натали Зиа, Ник Сирси, Джоэль Картер, Джекоб Питт, Уолтон Гоггинс, Уильям Рэгсдэйл, Кейтлин Девер, Дэвид Хилл--Описание: Федеральный маршал Рейлан Гивенс убил человека, не первого, и далеко не последнего. Хоть убитый и был преступником, но методы маршала Гивенса не одобряются начальством. В наказание его отправили работать в Кентукки, на родину.
Гивенс ненавидит Кентукки. К тому же, там его НЕ ждут бывшая жена; бывшие друзья, ставшие преступниками; обычные преступники, которые не любят, когда им мешают, и отец, который всегда был в неладах с законом. Конечно, у каждого из них своя правда, но федеральный маршал Рейлан Гивенс имеет в своем арсенале несколько весьма убедительных аргументов — в их числе, убийственное чувство юмора, глок и, разумеется, шляпа.--Качество видео: WEB-DL 720p
Формат видео: MKV
Видео кодек: AVC (High@L3.1)
Аудио кодек: AC-3
Видео: AVC, 1280x718 (16:9), 23.976 fps, 4 093 Kbps (0.186 bit/pixel)
Аудио 1: AC-3, 48.0 KHz, 6 ch, 384 Kbps, CBR, 16 bits [Русский]
Аудио 2: AC-3, 48.0 KHz, 6 ch, 640 Kbps, CBR, 16 bits [Английский] -- --

Кадры из фильма

Тех. данные (MI)

Код:
Общее
Уникальный идентификатор                 : 215703015077104838419111944964656205040 (0xA246E3BBB8D68B58B896ED96D5260CF0)
Полное имя                               : G:\тест\Justified\Justified. 5 season (WEB-DL l 720p l Good People)\Justified S05E01 720p WEB-DL DD5.1 H264 GoodPeople-Jaskier.mkv
Формат                                   : Matroska
Версия формата                           : Version 1
Размер файла                             : 1,72 Гбайт
Продолжительность                        : 49 м.
Общий поток                              : 4960 Кбит/сек
Дата кодирования                         : UTC 2014-01-28 12:56:47
Программа кодирования                    : mkvmerge v2.3.0 ('Freak U') built on Sep  8 2008 18:32:16
Библиотека кодирования                   : libebml v0.7.7 + libmatroska v0.8.1
Видео
Идентификатор                            : 1
Формат                                   : AVC
Формат/Информация                        : Advanced Video Codec
Профиль формата                          : High@L3.1
Параметр CABAC формата                   : Нет
Параметр ReFrames формата                : 2 кадра
Идентификатор кодека                     : V_MPEG4/ISO/AVC
Продолжительность                        : 49 м.
Битрейт                                  : 4093 Кбит/сек
Ширина                                   : 1280 пикселей
Высота                                   : 718 пикселей
Соотношение сторон                       : 16:9
Режим частоты кадров                     : Постоянный
Частота кадров                           : 23,976 кадра/сек
Цветовое пространство                    : YUV
Субдискретизация насыщенности            : 4:2:0
Битовая глубина                          : 8 бит
Тип развёртки                            : Прогрессивная
Бит/(Пиксели*Кадры)                      : 0.186
Размер потока                            : 1,42 Гбайт (83%)
Язык                                     : English
Default                                  : Да
Forced                                   : Нет
Основные цвета                           : BT.709
Характеристики трансфера                 : BT.709
Коэффициенты матрицы                     : BT.709
Аудио #1
Идентификатор                            : 2
Формат                                   : AC-3
Формат/Информация                        : Audio Coding 3
Расширение режима                        : CM (complete main)
Параметр Endianness формата              : Big
Идентификатор кодека                     : A_AC3
Продолжительность                        : 49 м.
Вид битрейта                             : Постоянный
Битрейт                                  : 384 Кбит/сек
Каналы                                   : 6 каналов
Расположение каналов                     : Front: L C R, Side: L R, LFE
Частота                                  : 48,0 КГц
Битовая глубина                          : 16 бит
Метод сжатия                             : С потерями
Размер потока                            : 136 Мбайт (8%)
Заголовок                                : Good People
Язык                                     : Russian
Default                                  : Да
Forced                                   : Нет
Аудио #2
Идентификатор                            : 3
Формат                                   : AC-3
Формат/Информация                        : Audio Coding 3
Расширение режима                        : CM (complete main)
Параметр Endianness формата              : Big
Идентификатор кодека                     : A_AC3
Продолжительность                        : 49 м.
Вид битрейта                             : Постоянный
Битрейт                                  : 384 Кбит/сек
Каналы                                   : 6 каналов
Расположение каналов                     : Front: L C R, Side: L R, LFE
Частота                                  : 48,0 КГц
Битовая глубина                          : 16 бит
Метод сжатия                             : С потерями
Размер потока                            : 136 Мбайт (8%)
Заголовок                                : Original
Язык                                     : English
Default                                  : Нет
Forced                                   : Нет
Текст
Идентификатор                            : 4
Формат                                   : UTF-8
Идентификатор кодека                     : S_TEXT/UTF8
Идентификатор кодека/Информация          : UTF-8 Plain Text
Язык                                     : English
Default                                  : Да
Forced                                   : Нет

_________________
[Торрент-статистика]
[Профиль]  [ЛС] 
Показать сообщения:    
Ответить на тему

Текущее время: Сегодня 16:41

Часовой пояс: GMT + 4



Вы не можете начинать темы
Вы не можете отвечать на сообщения
Вы не можете редактировать свои сообщения
Вы не можете удалять свои сообщения
Вы не можете голосовать в опросах
Вы не можете прикреплять файлы к сообщениям
Вы не можете скачивать файлы