Язык тела / Body Language / Сезон: 1 / Серии: 1-13 из 13 (Залман Кинг / Zalman King) [2008, Эротика, драма, мелодрама, DVDRip] MVO R5 Original

Ответить на тему
 
Автор
Сообщение

awk05 ®

Пол:

Стаж: 4 года 5 месяцев

Сообщений: 1352

Репутация: 275 [+] [-]

Откуда: Западная Украина Ривне

Пост 15-Сен-2014 11:20

[Цитировать] 

--Язык тела / Body Language-- Год выпуска: 2008
Страна: США
Жанр: Эротика, драма, мелодрама
Сезон/Серия: Сезон:1 / Серия 1-13 из 13
Продолжительность: 13 x 00:25:00
Перевод: Профессиональный многоголосый закадровый
Озвучка / Автор перевода: [R5]
Субтитры: отсутствуют--Режиссёр: Залман Кинг / Zalman King--В ролях: Джессика Риммер, Эрика Кокс, Анна Калина, Вероника Лондон, Курт Йануззо, Кристина Элдон, Сара Колфорд, Джессика Анткью.--Описание: Саманта, работает барменом в стриптиз-клубе, пытаясь скопить на учебу в колледже. Ее глазами мы увидим этот чарующий и традиционно очень скрытный мир. От стриптизерши под прикрытием, которая разоблачает целую преступную группировку до танцовщицы, приглашающей любителя подсматривать в свою личную жизнь, в каждом эпизоде этого нового откровенного сериала от мастера жанра Залмана Кинга, мы увидим уникальную драматическую историю.--Качество видео: DVDRip
Формат видео: AVI
Видео кодек: MPEG4, XviD
Аудио кодек: MP3
Видео: MPEG4, XviD, 720x400 (16:9), 25.000 fps, 1 770 Kbps (0.246 bit/pixel)
Аудио 1: MP3, 48.0 KHz, 2 ch, 192 Kbps, CBR, 16 bits [Русский]
Аудио 2: MP3, 48.0 KHz, 2 ch, 192 Kbps, CBR, 16 bits [Английский] -- --

Список серий

1. Любитель подсматривать / Peeping Tom
Миа знает, что кто-то за ней подглядывает, но это вызывает в ней любопытство и она решает соблазнить своего тайного почитателя.
2. Голая правда / Naked Truth
Молодая красотка претворяется стриптизершей, чтобы вывести на чистую воду крупного наркоторговца, западающего на танцовщиц.
3. Королева приватного танца / Lap Dance Queen
Не только тело Молли (воистину шикарное) делает ее лучшей танцовщицей клуба, но и ее чудесная способность точно угадывать все фантазии и желания своих клиентов.
4.Грязные секретики / Dirty Little Secrets
Подруга Саманты, Кейт, оказывается в клубе как раз в тот день, когда там снимают новый откровенный музыкальный клип. Это так ее заводит, что она решается воплотить свою собственную эротическую фантазию с вышибалой клуба.
5. Сексшопильный парень / Sex Shop Boy
Молодой продавец из секс-шопа снимает на камеру своих клиентов, в том числе и двух девушек из клуба, вынуждая их открыть свои самые сокровенные тайны.
6. Библиотекарь / The Librarian
Выйти на сцену с профессиональными танцовщицами казалось невинной забавой, но для Джиджи это стало первым шагом на пути к миру бесконтрольной сексуальной зависимости.
7.Дива на ланч / Lunch Hour Diva
У Молли - двое детей и муж, который не знает, что она является главной звездой клуба во время ланча... или знает?
8. Мальчишник / Bachelor Party
Молодой человек накануне свадьбы устраивает бурную вечеринку в клубе «Язык Тела».
9. Свары / Cat Fight Fever
Две лучшие подруги из клуба умудряются одновременно влюбиться в одного и того же парня. Со всеми вытекающими последствиями...
10. Следующая остановка - порно / Next Stop Porn
Для Наташи главное в жизни - это деньги, но грань между танцами в стрип-клубе и съемками в порно - так мала. Она не задумывается об этом до тех пор, пока не встречает богатого мужчину, который хочет жениться на ней.
11. Красавица и Байкер
Сторми всегда западает не на тех парней и Байкер - не исключение.
12. Госпожа
Госпожа хочет взять на работу Кэт, но узнает, что ее настоящий талант заключается в том, чтобы помочь преуспевающим в бизнесе женщинам познать свою истинную сексуальность, научившись танцевать стриптиз.
13. Деньги решают все
Саманта неплохо зарабатывает в клубе, работая барменом, но ей никогда и не приходило в голову обнажиться перед публикой или начать встречаться с кем-либо из клиентов... до тех пор, пока один из них не сделает предложения, от которого она не сможет отказаться.

Кадры из фильма



Тех. данные (MI)

Код:
Общее
Полное имя                               : E:\тест\язык тела\Библиотекарь.avi
Формат                                   : AVI
Формат/Информация                        : Audio Video Interleave
Размер файла                             : 398 Мбайт
Продолжительность                        : 25 м.
Общий поток                              : 2169 Кбит/сек
Программа кодирования                    : VirtualDubMod 1.5.10.2 (build 2540/release)
Библиотека кодирования                   : VirtualDubMod build 2540/release
Видео
Идентификатор                            : 0
Формат                                   : MPEG-4 Visual
Профиль формата                          : Advanced Simple@L5
Параметр BVOP формата                    : 2
Параметр QPel формата                    : Нет
Параметр GMC формата                     : Без точки перехода
Параметр матрицы формата                 : Default (MPEG)
Режим смешивания                         : Сжатый битовый поток
Идентификатор кодека                     : XVID
Идентификатор кодека/Подсказка           : XviD
Продолжительность                        : 25 м.
Битрейт                                  : 1770 Кбит/сек
Ширина                                   : 720 пикселей
Высота                                   : 400 пикселей
Соотношение сторон                       : 16:9
Частота кадров                           : 25,000 кадров/сек
Цветовое пространство                    : YUV
Субдискретизация насыщенности            : 4:2:0
Битовая глубина                          : 8 бит
Тип развёртки                            : Прогрессивная
Метод сжатия                             : С потерями
Бит/(Пиксели*Кадры)                      : 0.246
Размер потока                            : 325 Мбайт (82%)
Библиотека кодирования                   : XviD 64
Аудио #1
Идентификатор                            : 1
Формат                                   : MPEG Audio
Версия формата                           : Version 1
Профиль формата                          : Layer 3
Идентификатор кодека                     : 55
Идентификатор кодека/Подсказка           : MP3
Продолжительность                        : 25 м.
Вид битрейта                             : Постоянный
Битрейт                                  : 192 Кбит/сек
Каналы                                   : 2 канала
Частота                                  : 48,0 КГц
Метод сжатия                             : С потерями
Задержка видео                           : 16 мс.
Размер потока                            : 35,2 Мбайт (9%)
Выравнивание                             : Разделение по промежуткам
Продолжительность промежутка             : 40  мс. (1,00 видеокадр)
Время предзагрузки промежутка            : 500  мс.
Аудио #2
Идентификатор                            : 2
Формат                                   : MPEG Audio
Версия формата                           : Version 1
Профиль формата                          : Layer 3
Идентификатор кодека                     : 55
Идентификатор кодека/Подсказка           : MP3
Продолжительность                        : 25 м.
Вид битрейта                             : Постоянный
Битрейт                                  : 192 Кбит/сек
Каналы                                   : 2 канала
Частота                                  : 48,0 КГц
Метод сжатия                             : С потерями
Задержка видео                           : 16 мс.
Размер потока                            : 35,2 Мбайт (9%)
Выравнивание                             : Разделение по промежуткам
Продолжительность промежутка             : 40  мс. (1,00 видеокадр)
Время предзагрузки промежутка            : 500  мс.

_________________
[Торрент-статистика]
[Профиль]  [ЛС] 
Показать сообщения:    
Ответить на тему

Текущее время: Сегодня 16:37

Часовой пояс: GMT + 4



Вы не можете начинать темы
Вы не можете отвечать на сообщения
Вы не можете редактировать свои сообщения
Вы не можете удалять свои сообщения
Вы не можете голосовать в опросах
Вы не можете прикреплять файлы к сообщениям
Вы не можете скачивать файлы