Только правда / The Whole Truth / Сезон: 1 / Серии: 1-13 из 13 (Роб Бэйли, Карен Гавиола, Эгил Эгилссон) [2010 г., юридическая драма, SATRip] MVO (ТНТ)

Ответить на тему
 
Автор
Сообщение

awk05 ®

Пол:

Стаж: 4 года 5 месяцев

Сообщений: 1352

Репутация: 275 [+] [-]

Откуда: Западная Украина Ривне

Пост 15-Сен-2014 10:24

[Цитировать] 

--Только правда / The Whole Truth-- Год выпуска: 2010
Страна: США
Жанр: юридическая драма
Сезон/Серия: Сезон:1 /Серия 1-13 из 13
Продолжительность: 13 х ~ 00:41:00 минута
Перевод: Профессиональный (многоголосый, закадровый)
Озвучка / Автор перевода: /ТНТ/
Субтитры: отсутствуют--Режиссёр: Роб Бэйли, Карен Гавиола, Эгил Эгилссон--В ролях: Роб Морроу, Мора Тирни, Имонн Уолкер, Энтони Руйвивар, Шон Уинг, Стефани Николь Лемелин, Эллен Герстин, Кристин Адамс, Ди Ди Решер, Джош Стэмберг--Описание: В каждом деле всегда две стороны. Когда свои доказательства предоставит обвинение, вы будете клясться, что подсудимый виновен. Однако когда в дело вступит защита, вы будете убеждены в его невиновности. The Whole Truth приглашает вас испытать личной опыт самой волнующей работы и попытаться разгадать где ложь, а где правда.
Судебные процессы, зачастую, оставляют многие жизни на волоске. Пока жертвы и подзащитные затаив дыхание ожидают вердикта, адвокаты без устали работают как в зале суда, так и вне его, делая безумные ходы и контрходы в сложных юридических прениях, и все для того, чтобы склонить чашу правосудия в свою сторону.
Для серьезного и дотошного окружного прокурора Кэтрин Пил это вызов, который она с удовольствием принимает. Своей манерой поведения и заслуживающими внимания навыками она пугает своих служащих. Её противник по процессу и старинный друг Джимми Броган противоположен ей. Энергичный и веселый адвокат, который носит устаревшие кроссовки Reebok в суде. Их команды работают над доводами, подготавливаясь к противостоянию, а зрителю покажут дела как со стороны защиты, так и обвинения.
До самой последней сцены вам придется гадать, кто виновен, а кто нет. Однако спарринг и хитроумные маневры увлекут вас полностью. После прочтения приговора Джимми и Кэтрин каким-то образом, удается оставаться друзьями, несмотря ни на что.
Качество видео: SATRip
Формат видео: AVI
Видео кодек: MPEG4, XviD
Аудио кодек: MP3
Видео: MPEG4, XviD, 720x400 (16:9), 25.000 fps, 1 500 Kbps (0.208 bit/pixel)
Аудио: MP3, 48.0 KHz, 2 ch, 192 Kbps, CBR, 16 bits [Английский] -- --

Знаете ли Вы, что...

Сериал был закрыт после показа первых пяти серий.

Кадры из фильма



Тех. данные (MI)

Код:
Общее
Полное имя                               : E:\тест\The Whole Truth (tv series)\The.Whole.Truth.s01e01.Pilot.Rus.SATRip.avi
Формат                                   : AVI
Формат/Информация                        : Audio Video Interleave
Размер файла                             : 500 Мбайт
Продолжительность                        : 41 м.
Общий поток                              : 1702 Кбит/сек
Программа кодирования                    : VirtualDubMod 1.5.10.3 | www.virtualdub-fr.org || (build 2550/release)
Библиотека кодирования                   : VirtualDubMod build 2550/release
Видео
Идентификатор                            : 0
Формат                                   : MPEG-4 Visual
Профиль формата                          : Advanced Simple@L5
Параметр BVOP формата                    : 2
Параметр QPel формата                    : Нет
Параметр GMC формата                     : Без точки перехода
Параметр матрицы формата                 : Default (H.263)
Идентификатор кодека                     : XVID
Идентификатор кодека/Подсказка           : XviD
Продолжительность                        : 41 м.
Битрейт                                  : 1500 Кбит/сек
Ширина                                   : 720 пикселей
Высота                                   : 400 пикселей
Соотношение сторон                       : 16:9
Частота кадров                           : 25,000 кадров/сек
Цветовое пространство                    : YUV
Субдискретизация насыщенности            : 4:2:0
Битовая глубина                          : 8 бит
Тип развёртки                            : Прогрессивная
Метод сжатия                             : С потерями
Бит/(Пиксели*Кадры)                      : 0.208
Размер потока                            : 440 Мбайт (88%)
Библиотека кодирования                   : XviD 65
Аудио
Идентификатор                            : 1
Формат                                   : MPEG Audio
Версия формата                           : Version 1
Профиль формата                          : Layer 3
Режим                                    : Joint stereo
Расширение режима                        : MS Stereo
Идентификатор кодека                     : 55
Идентификатор кодека/Подсказка           : MP3
Продолжительность                        : 41 м.
Вид битрейта                             : Постоянный
Битрейт                                  : 192 Кбит/сек
Каналы                                   : 2 канала
Частота                                  : 48,0 КГц
Метод сжатия                             : С потерями
Размер потока                            : 56,4 Мбайт (11%)
Выравнивание                             : Соединение по промежуткам
Продолжительность промежутка             : 40  мс. (1,00 видеокадр)
Время предзагрузки промежутка            : 504  мс.
Библиотека кодирования                   : LAME3.99r
Настройки программы                      : -m j -V 4 -q 0 -lowpass 18.6 -b 192

_________________
[Торрент-статистика]
[Профиль]  [ЛС] 
Показать сообщения:    
Ответить на тему

Текущее время: Сегодня 04:12

Часовой пояс: GMT + 4



Вы не можете начинать темы
Вы не можете отвечать на сообщения
Вы не можете редактировать свои сообщения
Вы не можете удалять свои сообщения
Вы не можете голосовать в опросах
Вы не можете прикреплять файлы к сообщениям
Вы не можете скачивать файлы