Благородная женщина / The Honourable Woman / Сезон 1, серии 1-8 из 8 (Хьюго Блик / Hugo Blick)[2014г., шпионский триллер, драма, WEB-DLRip](BaibaKo)

Ответить на тему
 
Автор
Сообщение

awk05 ®

Пол:

Стаж: 4 года 5 месяцев

Сообщений: 1352

Репутация: 275 [+] [-]

Откуда: Западная Украина Ривне

Пост 10-Сен-2014 15:37

[Цитировать] 

--Благородная женщина / The Honourable Woman«Would you trust this woman?»-- Год выпуска: 2014
Страна: Великобритания, США
Жанр: шпионский триллер, драма
Сезон/Серия: Сезон:1 /Серия 1-8 из 8
Продолжительность: 8 х ~ 00:58:00
Перевод: Профессиональный (многоголосый закадровый)
Озвучка / Автор перевода: BaibaKo
Субтитры: Russian, English--Режиссер: Хьюго Блик / Hugo Blick--Актеры: Мэгги Джилленхол, Эндрю Бачан, Кэтрин Паркинсон, Лубна Азабаль, Женевьев О’Рейли, Ив Бест, Тобиаш Мензес, Джанет МакТир, Стивен Ри, Игал Наор и др.--Описание: История о Нессе Штейн, женщине, которой по наследству достается оружейный бизнес отца, в результате чего она оказывается втянутой в события международного масштаба, пытаясь содействовать примирению между израильтянами и палестинцами.--Качество видео: WEB-DLRip
Формат видео: AVI
Видео кодек: MPEG4, XviD
Аудио кодек: MP3
Видео: MPEG4, XviD, 720x400 (16:9), 25 fps, XviD ~1563 kbps, ~ 0.217 bit/pixel
Аудио 1: MP3, 48.0 KHz, 2 ch, 192 Kbps, CBR, 16 bits [Русский]
Аудио 2: MP3, 48.0 KHz, 2 ch, 192 Kbps, CBR, 16 bits [Английский] -- --

Кадры из фильма



Тех. данные (MI)

Общее
The Honourable Woman - Благородная женщина. Сезон 1. BaibaKo\The.Honourable.Woman.s01e01.WEB-DLRip.XviD.Rus.Eng.BaibaKo.tv.avi
Формат : AVI
Формат/Информация : Audio Video Interleave
Размер файла : 817 Мбайт
Продолжительность : 58 м.
Общий поток : 1962 Кбит/сек
Программа кодирования : VirtualDubMod 1.5.10.2 (build 2540/release)
Библиотека кодирования : VirtualDubMod build 2540/release
Видео
Идентификатор : 0
Формат : MPEG-4 Visual
Профиль формата : Advanced Simple@L5
Параметр BVOP формата : 2
Параметр QPel формата : Нет
Параметр GMC формата : Без точки перехода
Параметр матрицы формата : Default (H.263)
Идентификатор кодека : XVID
Идентификатор кодека/Подсказка : XviD
Продолжительность : 58 м.
Битрейт : 1563 Кбит/сек
Ширина : 720 пикселей
Высота : 400 пикселей
Соотношение сторон : 16:9
Частота кадров : 25,000 кадров/сек
Цветовое пространство : YUV
Субдискретизация насыщенности : 4:2:0
Битовая глубина : 8 бит
Тип развёртки : Прогрессивная
Метод сжатия : С потерями
Бит/(Пиксели*Кадры) : 0.217
Размер потока : 651 Мбайт (80%)
Библиотека кодирования : XviD 1.2.1 (UTC 2008-12-04)
Аудио #1
Идентификатор : 1
Формат : MPEG Audio
Версия формата : Version 1
Профиль формата : Layer 3
Режим : Joint stereo
Расширение режима : MS Stereo
Идентификатор кодека : 55
Идентификатор кодека/Подсказка : MP3
Продолжительность : 58 м.
Вид битрейта : Постоянный
Битрейт : 192 Кбит/сек
Каналы : 2 канала
Частота : 48,0 КГц
Метод сжатия : С потерями
Размер потока : 79,9 Мбайт (10%)
Выравнивание : Соединение по промежуткам
Продолжительность промежутка : 40 мс. (1,00 видеокадр)
Время предзагрузки промежутка : 504 мс.
Аудио #2
Идентификатор : 2
Формат : MPEG Audio
Версия формата : Version 1
Профиль формата : Layer 3
Режим : Joint stereo
Расширение режима : MS Stereo
Идентификатор кодека : 55
Идентификатор кодека/Подсказка : MP3
Продолжительность : 58 м.
Вид битрейта : Постоянный
Битрейт : 192 Кбит/сек
Каналы : 2 канала
Частота : 48,0 КГц
Метод сжатия : С потерями
Размер потока : 79,9 Мбайт (10%)
Выравнивание : Соединение по промежуткам
Продолжительность промежутка : 40 мс. (1,00 видеокадр)
Время предзагрузки промежутка : 504 мс.
Библиотека кодирования : LAME3.99.5ЄЄЄЄЄЄЄЄЄЄ

Список серий

01. The Empty Chair / Свободный стул
02. The Unfaithful Husband / Неверный муж
03. The Killing Call / Смертельное требование
04. The Ribbon Cutter / Резак ленты
05. Two Hearts / Два сердца
06. The Mother Line / Линия матери
07. The Hollow Wall / Полая стена
08. The Paring Knife / Нож для фруктов

_________________
[Торрент-статистика]
[Профиль]  [ЛС] 
Показать сообщения:    
Ответить на тему

Текущее время: Сегодня 19:34

Часовой пояс: GMT + 4



Вы не можете начинать темы
Вы не можете отвечать на сообщения
Вы не можете редактировать свои сообщения
Вы не можете удалять свои сообщения
Вы не можете голосовать в опросах
Вы не можете прикреплять файлы к сообщениям
Вы не можете скачивать файлы