Рождённый вором / Once a Thief / Сезон: 1 / Серии: 1-22 из 22 (Дэвид Ву (David Wu), Стив Димарко (Steve DiMarco), Питер Маршалл (Peter D. Marshall)) [1997, боевик, приключения, комедия., DVDRip] MVO + Original

Ответить на тему
 
Автор
Сообщение

awk05 ®

Пол:

Стаж: 4 года 5 месяцев

Сообщений: 1352

Репутация: 275 [+] [-]

Откуда: Западная Украина Ривне

Пост 03-Сен-2014 03:53

[Цитировать] 

--Рождённый вором / Once a Thief-- Годы выпуска: 1997-1998
Страна: Канада
Жанр: боевик, приключения, комедия.
Сезон/Серия: Сезон:1 / Серия 1-22 из 22
Продолжительность серии: 22 х 00:45:00
Перевод: 1-13, 15-22 серии: Профессиональный (двухголосый, закадровый) по заказу телеканала ДТВ, 14 серия: Профессиональный (многоголосый, закадровый)
Русские субтитры: нет--Режиссёры: Дэвид Ву (David Wu), Стив Димарко (Steve DiMarco), Питер Маршалл (Peter D. Marshall) и др.--В главных ролях: Сандрин Холт (Sandrine Holt), Иван Сергей (Ivan Sergei), Николас Ли (Nicholas Lea), Дженнифер Дэйл (Jennifer Dale).--Описание: Сериал о бывшем преступнике, бывшей преступнице и бывшем полицейском! Таков состав международного отдела по борьбе с преступностью в Ванкувере. Это подразделение обслуживает весь тихоокеанский регион. Во главе команды стоит загадочная леди «Директор» (или леди «Ди») - дама средних лет, прекрасная, властная и, как многие выражаются, загадочная. Все знают то, что все ее задания подлежат точному и беспрекословному исполнению… Такие люди как Мэк Ремзи, Ли Эн Цей и Виктор Мэнсфилд не случайно попали в отряд леди «Ди». И все трое в совершенстве обладают искусством различных восточных единоборств, невероятно метко стреляют и могут, не выделяясь, просто вписаться в любое общество. Необходимо подчеркнуть то, что Мэк и Ли Эн длительное время были членами преступной семьи Тэнгов из Гонконга. Необходимо подчеркнуть то, что они любили друг друга, но старик Тэнг решил женить на Ли Эн собственного отпрыска, и юным любовникам пришлось просто сбежать. Во время побега был взорван кабинет Тэнгов, и Ли Эн, наконец, решила, что Мэк умер при взрыве. Затем попав в Ванкувер, в отряд «Ди», Ли Эн стала женой Виктора, но здесь отряд пополнился неожиданно «воскресшим» Мэком, и как бы образовался любовный треугольник. Но при выполнении заданий наша троица должна была забывать о своих личных эмоциях и всегда быть во всеоружии! А каждое задание - это опасность и смертельный риск!…--Качество видео: DVDRip
Формат видео: AVI
Видео кодек: MPEG4, XviD
Аудио кодек: MP3
Видео: MPEG4, XviD, 512x384 (4:3), 25.000 fps, 947 Kbps (0.193 bit/pixel)
Аудио 1: MP3, 48.0 KHz, 2 ch, 128 Kbps, CBR, 16 bits [Русский]
Аудио 2: MP3, 48.0 KHz, 2 ch, 128 Kbps, CBR, 16 bits [Английский] -- --

Список серий

01. "Теория Большого взрыва" (The Big Bang Theory)
02. "Рэйв" (Rave On)
03. "Пробный брак (Trial Marriage)
04. "Искусство смерти (Art Of Death)
05. "Папаша Мака" (Mac Daddy)
06. "Безумная банда" (Wang Dang Doodle)
07. "Это случилось однажды ночью" (It Happened One Night)
08. "Она сказала: "Вперёд!"" (Drive, She Said)
09. "Бесценная любовь" (Jaded Love)
10. "Свадебный перезвон" (Wedding Bell Blues)
11. "Моя старая банда" (That Old Gang Of Mine)
12. "Последнее искушение Вика" (Last Temptation Of Vic)
13. "Маменькины сынки" (Mama's Boys)
14. "Выбор Ли Энн" (Li Ann's Choice)
15. "Настоящая грусть" (True Blue)
16. "Безумный суд" (Kangaroo Court)
17. "Младшая сестра" (Little Sister)
18. "Директорские материалы" (The Director Files)
19. "Взболтать, а не мешать" (Shaken Not Stirred)
20. "Политика любви" (Politics Of Love)
21. "Воссоединение семьи" (Family Reunion)
22. "Развязка" (Endgame)

Тех. данные (MI)

Общее
Полное имя : G:\тест\John.Woos.Once.a.Thief.DVDRip.Rus-Eng.ASIvanov-BaibaKo.tv\John.Woos.Once.a.Thief.s01e01.DVDRip.Rus-Eng.ASIvanov-BaibaKo.tv.avi
Формат : AVI
Формат/Информация : Audio Video Interleave
Размер файла : 389 Мбайт
Продолжительность : 44 м.
Общий поток : 1218 Кбит/сек
Программа кодирования : VirtualDubMod 1.5.10.2 (build 2540/release)
Библиотека кодирования : VirtualDubMod build 2540/release
Видео
Идентификатор : 0
Формат : MPEG-4 Visual
Профиль формата : Advanced Simple@L5
Параметр BVOP формата : 2
Параметр QPel формата : Нет
Параметр GMC формата : Без точки перехода
Параметр матрицы формата : Default (H.263)
Режим смешивания : Сжатый битовый поток
Идентификатор кодека : XVID
Идентификатор кодека/Подсказка : XviD
Продолжительность : 44 м.
Битрейт : 947 Кбит/сек
Ширина : 512 пикселей
Высота : 384 пикселя
Соотношение сторон : 4:3
Частота кадров : 25,000 кадров/сек
Цветовое пространство : YUV
Субдискретизация насыщенности : 4:2:0
Битовая глубина : 8 бит
Тип развёртки : Прогрессивная
Метод сжатия : С потерями
Бит/(Пиксели*Кадры) : 0.193
Размер потока : 302 Мбайт (78%)
Библиотека кодирования : XviD 64
Аудио #1
Идентификатор : 1
Формат : MPEG Audio
Версия формата : Version 1
Профиль формата : Layer 3
Режим : Joint stereo
Расширение режима : MS Stereo
Идентификатор кодека : 55
Идентификатор кодека/Подсказка : MP3
Продолжительность : 44 м.
Вид битрейта : Постоянный
Битрейт : 128 Кбит/сек
Каналы : 2 канала
Частота : 48,0 КГц
Метод сжатия : С потерями
Размер потока : 40,8 Мбайт (11%)
Выравнивание : Соединение по промежуткам
Продолжительность промежутка : 40 мс. (1,00 видеокадр)
Время предзагрузки промежутка : 504 мс.
Аудио #2
Идентификатор : 2
Формат : MPEG Audio
Версия формата : Version 1
Профиль формата : Layer 3
Режим : Joint stereo
Расширение режима : MS Stereo
Идентификатор кодека : 55
Идентификатор кодека/Подсказка : MP3
Продолжительность : 44 м.
Вид битрейта : Постоянный
Битрейт : 128 Кбит/сек
Каналы : 2 канала
Частота : 48,0 КГц
Метод сжатия : С потерями
Размер потока : 40,8 Мбайт (11%)
Выравнивание : Соединение по промежуткам
Продолжительность промежутка : 40 мс. (1,00 видеокадр)
Время предзагрузки промежутка : 504 мс.

Кадры из фильма




_________________
[Торрент-статистика]
[Профиль]  [ЛС] 
Показать сообщения:    
Ответить на тему

Текущее время: Сегодня 08:59

Часовой пояс: GMT + 4



Вы не можете начинать темы
Вы не можете отвечать на сообщения
Вы не можете редактировать свои сообщения
Вы не можете удалять свои сообщения
Вы не можете голосовать в опросах
Вы не можете прикреплять файлы к сообщениям
Вы не можете скачивать файлы