Спецназ: Сан-Диего / NTSF:SD:SUV / Сезон: 3 / Серии: 1-13 из 13(Райан МакФол, Эрик Аппель, Пол Шеер) [2013 г., Комедия, Криминал, Пародия, HDTVRip] DVO HamsterStudio

Ответить на тему
 
Автор
Сообщение

awk05 ®

Пол:

Стаж: 4 года 5 месяцев

Сообщений: 1352

Репутация: 275 [+] [-]

Откуда: Западная Украина Ривне

Пост 31-Авг-2014 09:43

[Цитировать] 

--Спецназ: Сан-Диего / NTSF:SD:SUV-- Страна: США
Год выпуска: 2013
Жанр: Комедия, Криминал, Пародия
Сезон/Серия: Сезон:3 /Серия 1-13 из 13
Продолжительность: 13 х 00:12:00
Перевод: Двуголосый закадровый, любительский
Озвучка / Автор перевода: HamsterStudio
Вид субтитров: Русские, Отдельным файлом--Режиссер: Райан МакФол, Эрик Аппель, Пол Шеер--Актеры: Джун Рафаэль, Брэндон Джонсон, Кейт Малгрю, Пол Шеер, Мартин Старр, Ребекка Ромин, Роб Риггл, Питер Серафинович, Curtis Gwinn, Джефф Голдблюм--Описание фильма: История из жизни группы по борьбе с терроризмом, которая искореняет зло на улицах Сан-Диего. Пародийная телевизионная комедия-короткометражка, за основу которой взяты сюжеты из нашумевших полицейских драм и боевиков. Кроме того, в сериале то и дело появляются приглашенные звезды.--Качество видео: HDTVRip
Формат видео: AVI
Видео кодек: MPEG4, XviD
Аудио кодек: MP3
Видео: MPEG4, XviD, 720x400 (16:9), 23.976 fps, 983 Kbps (0.142 bit/pixel)
Аудио 1: MP3, 48.0 KHz, 2 ch, 128 Kbps, CBR, 16 bits [Русский]
Аудио 2: MP3, 48.0 KHz, 2 ch, 128 Kbps, CBR, 16 bits [Английский]-- --

Кадры из фильма

Тех. данные (MI)

Код:
Общее
Полное имя                               : G:\Сериалы\NTSF.SD.SUV.S03.WEB-DL.720p.MIF\УГБТ 3\NTSF.SD.SUV.S03E01.avi
Формат                                   : AVI
Формат/Информация                        : Audio Video Interleave
Размер файла                             : 102 Мбайт
Продолжительность                        : 11 м.
Общий поток                              : 1265 Кбит/сек
Видео
Идентификатор                            : 0
Формат                                   : MPEG-4 Visual
Профиль формата                          : Advanced Simple@L5
Параметр BVOP формата                    : 1
Параметр QPel формата                    : Нет
Параметр GMC формата                     : Без точки перехода
Параметр матрицы формата                 : Default (H.263)
Идентификатор кодека                     : XVID
Идентификатор кодека/Подсказка           : XviD
Продолжительность                        : 11 м.
Битрейт                                  : 983 Кбит/сек
Ширина                                   : 720 пикселей
Высота                                   : 400 пикселей
Соотношение сторон                       : 16:9
Частота кадров                           : 23,976 кадра/сек
Цветовое пространство                    : YUV
Субдискретизация насыщенности            : 4:2:0
Битовая глубина                          : 8 бит
Тип развёртки                            : Прогрессивная
Метод сжатия                             : С потерями
Бит/(Пиксели*Кадры)                      : 0.142
Размер потока                            : 79,2 Мбайт (78%)
Библиотека кодирования                   : XviD 1.2.1 (UTC 2008-12-04)
Аудио #1
Идентификатор                            : 1
Формат                                   : MPEG Audio
Версия формата                           : Version 1
Профиль формата                          : Layer 3
Режим                                    : Joint stereo
Расширение режима                        : MS Stereo
Идентификатор кодека                     : 55
Идентификатор кодека/Подсказка           : MP3
Продолжительность                        : 6 м. 28 с.
Продолжительность оригинала              : 11 м.
Вид битрейта                             : Постоянный
Битрейт                                  : 128 Кбит/сек
Каналы                                   : 2 канала
Частота                                  : 48,0 КГц
Метод сжатия                             : С потерями
Размер потока                            : 10,3 Мбайт (10%)
Выравнивание                             : Соединение по промежуткам
Продолжительность промежутка             : 24  мс. (0,58 видеокадр)
Аудио #2
Идентификатор                            : 2
Формат                                   : MPEG Audio
Версия формата                           : Version 1
Профиль формата                          : Layer 3
Идентификатор кодека                     : 55
Идентификатор кодека/Подсказка           : MP3
Продолжительность                        : 6 м. 28 с.
Продолжительность оригинала              : 11 м.
Вид битрейта                             : Постоянный
Битрейт                                  : 128 Кбит/сек
Каналы                                   : 2 канала
Частота                                  : 48,0 КГц
Метод сжатия                             : С потерями
Размер потока                            : 10,3 Мбайт (10%)
Выравнивание                             : Соединение по промежуткам
Продолжительность промежутка             : 24  мс. (0,58 видеокадр)
Библиотека кодирования                   : LAME3.99r
Настройки программы                      : -m s -V 4 -q 2 -lowpass 17 -b 128

_________________
[Торрент-статистика]
[Профиль]  [ЛС] 
Показать сообщения:    
Ответить на тему

Текущее время: Сегодня 08:37

Часовой пояс: GMT + 4



Вы не можете начинать темы
Вы не можете отвечать на сообщения
Вы не можете редактировать свои сообщения
Вы не можете удалять свои сообщения
Вы не можете голосовать в опросах
Вы не можете прикреплять файлы к сообщениям
Вы не можете скачивать файлы