Доктор Кто / Doctor Who / Сезон:3 / Серия 1-13 из 13 (Грэм Харпер, Эрос Лин, Джеймс Стронг)[2007 г., Фантастика, Комедия, Приключения, DVDRip (HQ.Edition)]MVO СТС

Ответить на тему
 
Автор
Сообщение

awk05 ®

Пол:

Стаж: 4 года 5 месяцев

Сообщений: 1352

Репутация: 275 [+] [-]

Откуда: Западная Украина Ривне

Пост 24-Авг-2014 18:56

[Цитировать] 

--Доктор Кто / Doctor Who«Trust Your Doctor»-- Год выпуска: 2007
Страна: Великобритания
Жанр: Фантастика, Комедия, Приключения
Сезон/Серия: Сезон:3 /Серия 1-13 из 13
Продолжительность: 13 х 00:44:00
Перевод: Профессиональный (многоголосый, закадровый) + Original
Озвучка / Автор перевода: СТС
Субтитры: отсутствуют--Режиссёр: Грэм Харпер, Эрос Лин, Джеймс Стронг--В ролях: Дэвид Теннант, Билли Пайпер, Пол Каси, Фрима Аджйеман, Кристофер Экклстон, Камилла Кодури, Ноэль Кларк, Николас Бриггс, Джон Барроумен, Барнеби Эдвардс--Описание: "Доктор КТО" - это не имя, а вопрос, на который пока нет ответа. Известно, что тот, кто называет себя Доктором - Повелитель Времени с планеты Галлифрей. Сотни лет, веселый и мудрый, он путешествует сквозь время в своем Тардисе - корабле, внешне похожим на британский полицейский телефон-автомат, но почти бесконечно большим изнутри. На этот раз Доктор спасши из лап манекенов-убийц симпатичную блондинку по имени Роуз и найдя её в меру полезной, предлагает ей отправиться в своё путешествие вместе.
Началось всё в далёком 1963 году с чёрно-белого сериала о человеке, называющем себя просто Доктор, который путешествует во времени и пространстве с целью спасения человечества. Сама идея - это огромное поле для фантазии любого автора. Поэтому и полюбилась эта история зрителям и читателям. За сорокадвухлетнюю историю сериала сменилось 9 актёров играющих Доктора. Каждый сериал выходил в свой отрезок времени и, порой перерывы между новыми эпизодами составляли несколько лет. Но зритель ждал субботних вечеров на BBC и дождался таки в 2005-ом году, долгожданного продолжения любимой истории.--Качество видео: DVDRip (HQ.Edition)
Формат видео: MKV
Видео кодек: AVC (High@L5.1)
Аудио кодек: MP3
Видео: AVC, 720x576@1024x576 (16:9), 25.000 fps, 990 Kbps (0.095 bit/pixel)
Аудио 1: MP3, 48.0 KHz, 2 ch, 128 Kbps, CBR, 16 bits [Русский]
Аудио 2: MP3, 48.0 KHz, 2 ch, 112 Kbps, VBR, 16 bits [Английский] -- --

Список серий

1. Smith and Jones
2. The Shakespeare Code
3. Gridlock
4. Daleks in Manhattan
5. Evolution of the Daleks
6. The Lazarus Experiment
7. 42
8. Human Nature
9. The Family of Blood
10. Blink
11. Utopia
12. The Sound of Drums
13. Last of the Time Lords

Знаете ли Вы, что...

* Ив Майлс снималась в Докторе Кто в роли Гвинет и в Торчвуде как Гвен. В конце 4го сезона пояснили, что Гвинет — предок Гвен.
* По версии «Книги рекордов Гиннеса» «Доктор Кто» самый продолжительный научно-фантастический сериал.
* Джорджия Моффетт (дочь актера, сыгравшего пятого Доктора, и жена актера, сыгравшего десятого Доктора), сыгравшая в сериале дочь десятого Доктора, пробовалась на роль Роуз Тайлер.
* Дэвид Теннант, исполнявший роль Десятого Доктора с 2005-го года, объявил об уходе в октябре 2008-го. Актёра, который будет исполнять роль Одиннадцатого Доктора, подбирали несколько месяцев. 27-летний Мэтт Смит стал самым молодым актёром, который играл Доктора. До него самым молодым был актёр Питер Дэвисон, сыгравший в 29-летнем возрасте Пятого Доктора.
* Изначально Освин не должна была иметь никакого отношения к Кларе Освальд, она просто была одноразовым персонажем. Однако во время прослушивания Дженны Коулман на роль спутницы, Стивен Моффат решил сделать Освин одной из копий Клары и взял актрису сразу на две роли.
* В 2011 году Моффат объявил, что хочет «дать далекам передохнуть», потому что, по его мнению, «их слишком частые появления сделали их самыми легко побеждаемыми врагами». Раньше далеки пугали, но со временем стали своеобразными символами Британии и считались «забавными». Своей целью в «Изоляторе далеков» Моффат ставил снова сделать их страшными, и для этого он решил «представить их еще более безумными, чем обычно». Карен Гиллан призналась, что до начала работы над этой серией совершенно не боялась далеков.
* Серии «Ангелы захватывают Манхэттен», «Снеговики» и «Изолятор Далеков» были номинированы на премью Хьюго в номинации «лучшая постановка» (малая форма).
* Торчвуд (Torchwood) на английском языке является анаграммой Доктору Кто (Doctor Who). В начале съемок в 2005 году BBC были обеспокоены конфиденциальностью и дали проекту кодовое название «Торчвуд». Позже данное название было использовано в спинн-оффе сериала.
* Бенедикту Камбербэтчу предлагали роль Доктора после ухода Дэвида Теннанта, но он отказался ссылаясь на ответственность, которая придет вместе с ролью.
* Карен Гиллан, сыгравшая Эми Понд — спутницу 11 доктора, появилась в сериале еще в четвертом сезоне в эпизоде «Огни помпей», где сыграла одну из жриц.
* Перед тем как Фрима Аджьеман появилась в сериале в образе спутницы 10 Доктора, она сыграла во 2м сезоне в серии «Армия призраков» в роли одной из сотрудниц Торчвуда.
* Питер Капальди, исполнитель роли двенадцатого воплощения Доктора, ранее сыграл в фильме «Война миров Z» (2013) медицинского сотрудника, указанного в титрах как «W.H.O. Doctor».
* В честь 50-летнего юбилея сериала, Королевская почта Великобритании выпустила в 2013-м году серию марок, посвященных «Доктору Кто».
* В серии «Далеки на Манхэттане» члены культа Скаро сказали, что родная планета далеков Скаро была уничтожена. Наличие этой планеты в серии «Изолятор далеков» противоречит их словам.

Кадры из фильма



Тех. данные (MI)

Код:
Общее
Уникальный идентификатор                 : 212292045780142176069837203666566114815 (0x9FB5F5F67C49662CB98CD6F92847EDFF)
Полное имя                               : G:\тест\Doctor.Who.Series.3.Complete.HQ.Edition.x264\Doctor.Who.S03E01.Smith.and.Jones.HQ.Edition.x264-N-(Rus.Eng).mkv
Формат                                   : Matroska
Версия формата                           : Version 1
Размер файла                             : 391 Мбайт
Продолжительность                        : 44 м.
Режим общего битрейта                    : Переменный
Общий поток                              : 1231 Кбит/сек
Название фильма                          : Doctor Who Season 3 Episode 1 by [MM]
Дата кодирования                         : UTC 2009-05-24 08:47:08
Программа кодирования                    : mkvmerge v2.4.2 ('Oh My God') built on Jan 18 2009 17:30:28
Библиотека кодирования                   : libebml v0.7.7 + libmatroska v0.8.1
Видео
Идентификатор                            : 1
Формат                                   : AVC
Формат/Информация                        : Advanced Video Codec
Профиль формата                          : High@L5.1
Параметр CABAC формата                   : Да
Параметр ReFrames формата                : 16 кадров
Идентификатор кодека                     : V_MPEG4/ISO/AVC
Продолжительность                        : 44 м.
Битрейт                                  : 990 Кбит/сек
Ширина                                   : 720 пикселей
Высота                                   : 576 пикселей
Соотношение сторон                       : 16:9
Соотношение сторон в оригинале           : 5:4
Режим частоты кадров                     : Постоянный
Частота кадров                           : 25,000 кадров/сек
Стандарт вещания                         : PAL
Цветовое пространство                    : YUV
Субдискретизация насыщенности            : 4:2:0
Битовая глубина                          : 8 бит
Тип развёртки                            : Прогрессивная
Бит/(Пиксели*Кадры)                      : 0.095
Размер потока                            : 307 Мбайт (79%)
Заголовок                                : Doctor.Who.S03E01.Smith.and.Jones.HQ.Edition.x264-N-(Rus.Eng)
Библиотека кодирования                   : x264 core 54 svn-636
Настройки программы                      : cabac=1 / ref=16 / deblock=1:-2:-1 / analyse=0x3:0x133 / me=umh / subme=6 / brdo=1 / mixed_ref=1 / me_range=16 / chroma_me=1 / trellis=2 / 8x8dct=1 / cqm=0 / deadzone=21,11 / chroma_qp_offset=0 / threads=2 / nr=0 / decimate=1 / mbaff=0 / bframes=3 / b_pyramid=1 / b_adapt=1 / b_bias=0 / direct=3 / wpredb=1 / bime=1 / keyint=250 / keyint_min=25 / scenecut=40(pre) / rc=2pass / bitrate=990 / ratetol=1.0 / rceq='blurCplx^(1-qComp)' / qcomp=0.60 / qpmin=10 / qpmax=51 / qpstep=4 / cplxblur=20.0 / qblur=0.5 / ip_ratio=1.40 / pb_ratio=1.30
Default                                  : Да
Forced                                   : Нет
Аудио #1
Идентификатор                            : 2
Формат                                   : MPEG Audio
Версия формата                           : Version 1
Профиль формата                          : Layer 3
Режим                                    : Joint stereo
Расширение режима                        : MS Stereo
Идентификатор кодека                     : A_MPEG/L3
Идентификатор кодека/Подсказка           : MP3
Продолжительность                        : 44 м.
Вид битрейта                             : Постоянный
Битрейт                                  : 128 Кбит/сек
Каналы                                   : 2 канала
Частота                                  : 48,0 КГц
Метод сжатия                             : С потерями
Размер потока                            : 40,7 Мбайт (10%)
Заголовок                                : Rus
Язык                                     : Russian
Default                                  : Да
Forced                                   : Нет
Аудио #2
Идентификатор                            : 3
Формат                                   : MPEG Audio
Версия формата                           : Version 1
Профиль формата                          : Layer 3
Режим                                    : Joint stereo
Идентификатор кодека                     : A_MPEG/L3
Идентификатор кодека/Подсказка           : MP3
Продолжительность                        : 43 м.
Вид битрейта                             : Переменный
Битрейт                                  : 112 Кбит/сек
Каналы                                   : 2 канала
Частота                                  : 44,1 КГц
Метод сжатия                             : С потерями
Размер потока                            : 34,6 Мбайт (9%)
Заголовок                                : Eng
Библиотека кодирования                   : LAME3.97
Настройки программы                      : -m j -V 4 -q 3 -lowpass 15.6 --abr 112
Язык                                     : English
Default                                  : Нет
Forced                                   : Нет

_________________
[Торрент-статистика]
[Профиль]  [ЛС] 
Показать сообщения:    
Ответить на тему

Текущее время: Сегодня 08:39

Часовой пояс: GMT + 4



Вы не можете начинать темы
Вы не можете отвечать на сообщения
Вы не можете редактировать свои сообщения
Вы не можете удалять свои сообщения
Вы не можете голосовать в опросах
Вы не можете прикреплять файлы к сообщениям
Вы не можете скачивать файлы