Доктор Кто / Doctor Who / Сезон:1 / Серия 1-13 из 13 (Грэм Харпер, Эрос Лин, Джеймс Стронг)[2005 г., Фантастика, Комедия, Приключения, DVDRip (HQ.Edition)]MVO Sci-Fi

Ответить на тему
 
Автор
Сообщение

awk05 ®

Пол:

Стаж: 4 года 5 месяцев

Сообщений: 1352

Репутация: 275 [+] [-]

Откуда: Западная Украина Ривне

Пост 24-Авг-2014 18:19

[Цитировать] 

--Доктор Кто / Doctor Who«Trust Your Doctor»-- Год выпуска: 2005
Страна: Великобритания
Жанр: Фантастика, Комедия, Приключения
Сезон/Серия: Сезон:1 /Серия 1-13 из 13
Продолжительность: 13 х 00:45:00
Перевод: Профессиональный (многоголосый, закадровый) + Original
Озвучка / Автор перевода: Sci-Fi
Субтитры: отсутствуют--Режиссёр: Грэм Харпер, Эрос Лин, Джеймс Стронг--В ролях: Дэвид Теннант, Билли Пайпер, Пол Каси, Фрима Аджйеман, Кристофер Экклстон, Камилла Кодури, Ноэль Кларк, Николас Бриггс, Джон Барроумен, Барнеби Эдвардс--Описание: Роза Тайлер отдала целую жизнь работе продавца в одном из магазинов Лондона, ведя спокойную и умеренную жизнь, но однажды случилось нечто непонятное и неподдающееся человеческому разуму - манекены в магазине ожили и попытались убить Розу... если бы не помощь загадочного Доктора... Кто он? Им является путешественник сквозь временное пространство, искатель невероятных приключений и межгалактический герой...Розу охватывает любопытство и она прикладывает максимум усилий, чтобы отправиться с Доктором в увлекательное путешествие...--Качество видео: DVDRip (HQ.Edition)
Формат видео: MKV
Видео кодек: AVC (High@L5.1)
Аудио кодек: MP3
Видео: AVC, 720x576@1024x576 (16:9), 25.000 fps, 951 Kbps (0.092 bit/pixel)
Аудио 1: MP3, 48.0 KHz, 2 ch, 128 Kbps, CBR, 16 bits [Русский]
Аудио 2: MP3, 48.0 KHz, 2 ch, 160 Kbps, VBR, 16 bits [Английский] -- --

Список серий

1. Rose / Роза
2. The End Of The World / Конец Света
3. The Unquiet Dead / Неупокоенные мертвецы
4. Aliens of London
5. World War Three
6. Dalek
7. The Long Game
8. Father's Day
9. The Empty Child
10. The Doctor Dances
11. Boom Town

Знаете ли Вы, что...

* Ив Майлс снималась в Докторе Кто в роли Гвинет и в Торчвуде как Гвен. В конце 4го сезона пояснили, что Гвинет — предок Гвен.
* По версии «Книги рекордов Гиннеса» «Доктор Кто» самый продолжительный научно-фантастический сериал.
* Джорджия Моффетт (дочь актера, сыгравшего пятого Доктора, и жена актера, сыгравшего десятого Доктора), сыгравшая в сериале дочь десятого Доктора, пробовалась на роль Роуз Тайлер.
* Дэвид Теннант, исполнявший роль Десятого Доктора с 2005-го года, объявил об уходе в октябре 2008-го. Актёра, который будет исполнять роль Одиннадцатого Доктора, подбирали несколько месяцев. 27-летний Мэтт Смит стал самым молодым актёром, который играл Доктора. До него самым молодым был актёр Питер Дэвисон, сыгравший в 29-летнем возрасте Пятого Доктора.
* Изначально Освин не должна была иметь никакого отношения к Кларе Освальд, она просто была одноразовым персонажем. Однако во время прослушивания Дженны Коулман на роль спутницы, Стивен Моффат решил сделать Освин одной из копий Клары и взял актрису сразу на две роли.
* В 2011 году Моффат объявил, что хочет «дать далекам передохнуть», потому что, по его мнению, «их слишком частые появления сделали их самыми легко побеждаемыми врагами». Раньше далеки пугали, но со временем стали своеобразными символами Британии и считались «забавными». Своей целью в «Изоляторе далеков» Моффат ставил снова сделать их страшными, и для этого он решил «представить их еще более безумными, чем обычно». Карен Гиллан призналась, что до начала работы над этой серией совершенно не боялась далеков.
* Серии «Ангелы захватывают Манхэттен», «Снеговики» и «Изолятор Далеков» были номинированы на премью Хьюго в номинации «лучшая постановка» (малая форма).
* Торчвуд (Torchwood) на английском языке является анаграммой Доктору Кто (Doctor Who). В начале съемок в 2005 году BBC были обеспокоены конфиденциальностью и дали проекту кодовое название «Торчвуд». Позже данное название было использовано в спинн-оффе сериала.
* Бенедикту Камбербэтчу предлагали роль Доктора после ухода Дэвида Теннанта, но он отказался ссылаясь на ответственность, которая придет вместе с ролью.
* Карен Гиллан, сыгравшая Эми Понд — спутницу 11 доктора, появилась в сериале еще в четвертом сезоне в эпизоде «Огни помпей», где сыграла одну из жриц.
* Перед тем как Фрима Аджьеман появилась в сериале в образе спутницы 10 Доктора, она сыграла во 2м сезоне в серии «Армия призраков» в роли одной из сотрудниц Торчвуда.
* Питер Капальди, исполнитель роли двенадцатого воплощения Доктора, ранее сыграл в фильме «Война миров Z» (2013) медицинского сотрудника, указанного в титрах как «W.H.O. Doctor».
* В честь 50-летнего юбилея сериала, Королевская почта Великобритании выпустила в 2013-м году серию марок, посвященных «Доктору Кто».
* В серии «Далеки на Манхэттане» члены культа Скаро сказали, что родная планета далеков Скаро была уничтожена. Наличие этой планеты в серии «Изолятор далеков» противоречит их словам.

Кадры из фильма



Тех. данные (MI)

Код:
Общее
Уникальный идентификатор                 : 253958452028964548982289860436476457730 (0xBF0E9E65B29196EF9107448D4AB67302)
Полное имя                               : G:\тест\Doctor.Who.Series.1.Complete.HQ.Edition.x264\Doctor.Who.S01E01.Rose.HQ.Edition.x264-N-(Rus.Eng).mkv
Формат                                   : Matroska
Версия формата                           : Version 1
Размер файла                             : 391 Мбайт
Продолжительность                        : 44 м.
Режим общего битрейта                    : Переменный
Общий поток                              : 1236 Кбит/сек
Название фильма                          : Done with AutoMKV 0.82 http://forum.doom9.org/showthread.php?p=854221
Дата кодирования                         : UTC 2008-06-29 00:01:35
Программа кодирования                    : mkvmerge v2.0.2 ('You're My Flame') built on Feb 21 2007 23:40:55
Библиотека кодирования                   : libebml v0.7.7 + libmatroska v0.8.1
Видео
Идентификатор                            : 1
Формат                                   : AVC
Формат/Информация                        : Advanced Video Codec
Профиль формата                          : High@L5.1
Параметр CABAC формата                   : Да
Параметр ReFrames формата                : 16 кадров
Идентификатор кодека                     : V_MPEG4/ISO/AVC
Продолжительность                        : 44 м.
Битрейт                                  : 951 Кбит/сек
Ширина                                   : 720 пикселей
Высота                                   : 576 пикселей
Соотношение сторон                       : 16:9
Соотношение сторон в оригинале           : 5:4
Режим частоты кадров                     : Постоянный
Частота кадров                           : 25,000 кадров/сек
Стандарт вещания                         : PAL
Цветовое пространство                    : YUV
Субдискретизация насыщенности            : 4:2:0
Битовая глубина                          : 8 бит
Тип развёртки                            : Прогрессивная
Бит/(Пиксели*Кадры)                      : 0.092
Размер потока                            : 292 Мбайт (75%)
Заголовок                                : Doctor Who S01E01
Библиотека кодирования                   : x264 core 55 svn-656
Настройки программы                      : cabac=1 / ref=16 / deblock=1:-2:-1 / analyse=0x3:0x133 / me=umh / subme=6 / brdo=1 / mixed_ref=1 / me_range=16 / chroma_me=1 / trellis=2 / 8x8dct=1 / cqm=0 / deadzone=21,11 / chroma_qp_offset=0 / threads=2 / nr=0 / decimate=1 / mbaff=0 / bframes=3 / b_pyramid=1 / b_adapt=1 / b_bias=0 / direct=3 / wpredb=1 / bime=1 / keyint=250 / keyint_min=25 / scenecut=40(pre) / rc=2pass / bitrate=951 / ratetol=1.0 / rceq='blurCplx^(1-qComp)' / qcomp=0.60 / qpmin=10 / qpmax=51 / qpstep=4 / cplxblur=20.0 / qblur=0.5 / ip_ratio=1.40 / pb_ratio=1.30
Язык                                     : English
Default                                  : Да
Forced                                   : Нет
Аудио #1
Идентификатор                            : 2
Формат                                   : MPEG Audio
Версия формата                           : Version 1
Профиль формата                          : Layer 3
Режим                                    : Joint stereo
Расширение режима                        : MS Stereo
Идентификатор кодека                     : A_MPEG/L3
Идентификатор кодека/Подсказка           : MP3
Продолжительность                        : 44 м.
Вид битрейта                             : Постоянный
Битрейт                                  : 128 Кбит/сек
Каналы                                   : 2 канала
Частота                                  : 48,0 КГц
Метод сжатия                             : С потерями
Размер потока                            : 40,5 Мбайт (10%)
Заголовок                                : Rus
Язык                                     : Russian
Default                                  : Да
Forced                                   : Нет
Аудио #2
Идентификатор                            : 3
Формат                                   : MPEG Audio
Версия формата                           : Version 1
Профиль формата                          : Layer 3
Режим                                    : Joint stereo
Расширение режима                        : MS Stereo
Идентификатор кодека                     : A_MPEG/L3
Идентификатор кодека/Подсказка           : MP3
Продолжительность                        : 42 м.
Вид битрейта                             : Переменный
Битрейт                                  : 160 Кбит/сек
Каналы                                   : 2 канала
Частота                                  : 48,0 КГц
Метод сжатия                             : С потерями
Размер потока                            : 48,4 Мбайт (12%)
Заголовок                                : Eng
Библиотека кодирования                   : LAME3.97
Настройки программы                      : -m j -V 4 -q 3 -lowpass 17.5 --abr 160
Язык                                     : English
Default                                  : Нет
Forced                                   : Нет

_________________
[Торрент-статистика]
[Профиль]  [ЛС] 
Показать сообщения:    
Ответить на тему

Текущее время: Сегодня 04:15

Часовой пояс: GMT + 4



Вы не можете начинать темы
Вы не можете отвечать на сообщения
Вы не можете редактировать свои сообщения
Вы не можете удалять свои сообщения
Вы не можете голосовать в опросах
Вы не можете прикреплять файлы к сообщениям
Вы не можете скачивать файлы