Чужестранка / Outlander / Сезон: 1 / Серии: 1-8 из 16 (Джон Дал) [2014, фантастика, драма, мелодрама, HDTVRip] MVO (BaibaKo) + Original (Обновляемая)

Ответить на тему
 
Автор
Сообщение

awk05 ®

Пол:

Стаж: 4 года 5 месяцев

Сообщений: 1352

Репутация: 275 [+] [-]

Откуда: Западная Украина Ривне

Пост 05-Авг-2014 01:36

[Цитировать] 

--Чужестранка / Outlander«What if your future was the past?»-- Год выпуска: 2014
Страна: США
Жанр: фантастика, драма, мелодрама
Сезон/Серия: Сезон:1 /Серия 1-8 из 16
Продолжительность: 16 х ~ 01:03:31
Перевод: Профессиональный (многоголосый закадровый) BaibaKo
Субтитры: отсутствуют---Режиссёр: Джон Дал--В ролях: Каитриона Бэлфи, Сэм Юэн, Дункан Лакруа, Гари Льюис, Грэм Мак Тавиш, Тобиаш Мензес, Стивен Уолтерс, Аннет Бэдленд, Родерик Джилкисон.--Описание: Клэр, работавшая медсестрой во время Второй мировой войны, случайно перемещается во времени и попадает в 1743 год. В этом мире, полном приключений, она знакомится с шотландским рыцарем Джейми. У героев завязывается страстный роман, несмотря на то, что сердце Клэр разрывается между двумя мужчинами — Джейми и ее мужем Фрэнком, который остался в другом времени.--Качество видео: HDTVRip
Формат видео: AVI
Видео кодек: MPEG4, XviD
Аудио кодек: MP3
Видео: MPEG4, XviD, 720x400 (16:9), 23.976 fps, 1 518 Kbps (0.220 bit/pixel)
Аудио 1: MP3, 48.0 KHz, 2 ch, 192 Kbps, CBR, 16 bits [Русский]
Аудио 2: MP3, 48.0 KHz, 2 ch, 192 Kbps, CBR, 16 bits [Английский] -- --

Список серий

01. Sassenach / Сэсинак (Чужестранка)
02. Castle Leoch / Замок Леох
03. The Way Out / Выход
04. The Gathering / Cобрание
05. Rent / Оброк
06. The Garrison Commander / Командир гарнизона
07. The Wedding / Cвадьба
08. Both Sides Now / Теперь по обе стороны

Тех. данные (MI)

Код:
Общее
Полное имя : G:\Films\Outlander.web-dl\Outlander.s01e01.HDTVRip.XviD.Rus.Eng.BaibaKo.tv.avi
Формат : AVI
Формат/Информация : Audio Video Interleave
Размер файла : 871 Мбайт
Продолжительность : 1 ч. 3 м.
Общий поток : 1918 Кбит/сек
Программа кодирования : VirtualDubMod 1.5.10.2 (build 2540/release)
Библиотека кодирования : VirtualDubMod build 2540/release
Видео
Идентификатор : 0
Формат : MPEG-4 Visual
Профиль формата : Advanced Simple@L5
Параметр BVOP формата : 2
Параметр QPel формата : Нет
Параметр GMC формата : Без точки перехода
Параметр матрицы формата : Default (H.263)
Идентификатор кодека : XVID
Идентификатор кодека/Подсказка : XviD
Продолжительность : 1 ч. 3 м.
Битрейт : 1520 Кбит/сек
Ширина : 720 пикселей
Высота : 400 пикселей
Соотношение сторон : 16:9
Частота кадров : 23,976 кадра/сек
Цветовое пространство : YUV
Субдискретизация насыщенности : 4:2:0
Битовая глубина : 8 бит
Тип развёртки : Прогрессивная
Метод сжатия : С потерями
Бит/(Пиксели*Кадры) : 0.220
Размер потока : 690 Мбайт (79%)
Библиотека кодирования : XviD 1.2.1 (UTC 2008-12-04)
Аудио #1
Идентификатор : 1
Формат : MPEG Audio
Версия формата : Version 1
Профиль формата : Layer 3
Режим : Joint stereo
Расширение режима : MS Stereo
Идентификатор кодека : 55
Идентификатор кодека/Подсказка : MP3
Продолжительность : 1 ч. 3 м.
Вид битрейта : Постоянный
Битрейт : 192 Кбит/сек
Каналы : 2 канала
Частота : 48,0 КГц
Метод сжатия : С потерями
Размер потока : 87,2 Мбайт (10%)
Выравнивание : Соединение по промежуткам
Продолжительность промежутка : 42 мс. (1,00 видеокадр)
Время предзагрузки промежутка : 504 мс.
Аудио #2
Идентификатор : 2
Формат : MPEG Audio
Версия формата : Version 1
Профиль формата : Layer 3
Режим : Joint stereo
Расширение режима : MS Stereo
Идентификатор кодека : 55
Идентификатор кодека/Подсказка : MP3
Продолжительность : 1 ч. 3 м.
Вид битрейта : Постоянный
Битрейт : 192 Кбит/сек
Каналы : 2 канала
Частота : 48,0 КГц
Метод сжатия : С потерями
Размер потока : 87,2 Мбайт (10%)
Выравнивание : Соединение по промежуткам
Продолжительность промежутка : 42 мс. (1,00 видеокадр)
Время предзагрузки промежутка : 504 мс.

Кадры из фильма

Раздача ведется путем добавления новых серий

Внимание! Раздача ведётся путём добавления новых серий; при каждом добавлении создётся новый торрент. Чтобы начать докачку новой серии, пользователям необходимо сделать следующее:
Остановить скачивание.
Удалить старый торрент у себя из клиента (старые серии удалять не надо).
Скачать новый торрент и запустить его у себя в клиенте вместо старого, при этом указать клиенту путь в старую папку куда и должно происходить скачивание новых серий.
Ваш клиент при этом должен произвести хеширование (проверку) старой папки (если не производит сам - помогите ему сделать это), и будет докачивать только те серии которых у вас ещё нет. Старые серии при этом не удаляются, а продолжают раздаваться!
Eсли вы уже удалили старые серии, то предотвратить повторную закачку старых серий можно, отжав галочку в соответсвующих местах при запуске нового торрента. По возможности, желательно не удалять старые серии как можно дольше чтобы релизёр не столько продолжал раздавать старые серии, а смог сконцентрироваться на новых.

_________________
[Торрент-статистика]
[Профиль]  [ЛС] 
Показать сообщения:    
Ответить на тему

Текущее время: Сегодня 08:41

Часовой пояс: GMT + 4



Вы не можете начинать темы
Вы не можете отвечать на сообщения
Вы не можете редактировать свои сообщения
Вы не можете удалять свои сообщения
Вы не можете голосовать в опросах
Вы не можете прикреплять файлы к сообщениям
Вы не можете скачивать файлы