Под куполом / Under the Dome, сезон 2, серии 01-06 из 13 (Джек Бендер / Jack Bender, Дэвид Баррет / David Barrett, Питер Лето / Peter Leto) [2014 г., триллер, драма, детектив, WEB-DLRip 400p] [LostFilm]

Ответить на тему
 
Автор
Сообщение

ArtZak ®

Пол:

Стаж: 5 лет 1 месяц

Сообщений: 3008

Репутация: 1363 [+] [-]

Откуда: Россия

Пост 01-Авг-2014 07:51

[Цитировать] 

Под куполом / Under the Dome
«They are all trapped inside»
- Год выпуска: 2014
Страна: США | Amblin Television, Baer Bones, CBS Television Studios
Сезон/Серии: сезон 2, серии 01-06 из 13
Жанр: триллер, драма, детектив
Продолжительность: 00:43:00
Перевод: Профессиональный (многоголосый, закадровый) [LostFilm]
Субтитры: нет
Режиссер: Джек Бендер / Jack Bender, Дэвид Баррет / David Barrett, Питер Лето / Peter Leto- -В ролях:
Майк Фогель, Колин Форд, Аиша Хиндс, Александр Кох, Рашель Лефевр, Натали Мартинез, Дин Норрис, Джолин Парди, Бриттани Робертсон, Николас Стронг, Нед Беллами, Дэйл Рауль, Р. Кейт Харрис, Стив Болдуин, Шерри Боулинг, Кевин Сайзмор, Эндрю Фогель, Джеймс Алком, Линдс Эдвардс, Джефф Фэйи, Кристал Мартинез, Маккензи Линтц
Описание:
Обычным, пригожим осенним днем, город Честерс Миллз, штат Мэн, был внезапно отрезан от остального мира невидимым силовым барьером. Самолеты врезаются в купол и падают, пылая, с небес; садовнику отрезает силовым полем руку; люди, выехавшие в соседний город по делам, не могут вернуться к своим близким; автомобили взрываются от столкновения с куполом. Никто не понимает, что это за барьер, откуда он взялся и исчезнет ли он.
Качество: WEB-DLRip
Формат: AVI
Видео кодек: XviD
Аудио кодек: MP3 (MPEG1 Layer 3)
Видео: 720x400 (1.80:1), 23.976 fps, XviD build 50 ~1914 kbps avg, 0.28 bit/pixel
Аудио: 48 kHz, MPEG Layer 3, 2 ch, ~192.00 kbps avg

MI

General
Complete name : D:\downloads\Under.the.Dome.S02.LostFilm\Under.the.Dome.S02E01.rus.LostFilm.TV.avi
Format : AVI
Format/Info : Audio Video Interleave
File size : 660 MiB
Duration : 43mn 38s
Overall bit rate mode : Variable
Overall bit rate : 2 115 Kbps
Writing application : Nandub v1.0rc2
Writing library : Nandub build 1853/release
Video
ID : 0
Format : MPEG-4 Visual
Format profile : Advanced Simple@L5
Format settings, BVOP : No
Format settings, QPel : No
Format settings, GMC : No warppoints
Format settings, Matrix : Default (H.263)
Codec ID : XVID
Codec ID/Hint : XviD
Duration : 43mn 38s
Bit rate : 1 915 Kbps
Width : 720 pixels
Height : 400 pixels
Display aspect ratio : 16:9
Frame rate : 23.976 fps
Color space : YUV
Chroma subsampling : 4:2:0
Bit depth : 8 bits
Scan type : Progressive
Compression mode : Lossy
Bits/(Pixel*Frame) : 0.277
Stream size : 598 MiB (91%)
Writing library : XviD 1.2.1 (UTC 2008-12-04)
Audio
ID : 1
Format : MPEG Audio
Format version : Version 1
Format profile : Layer 3
Mode : Joint stereo
Mode extension : MS Stereo
Codec ID : 55
Codec ID/Hint : MP3
Duration : 43mn 38s
Bit rate mode : Variable
Bit rate : 192 Kbps
Channel(s) : 2 channels
Sampling rate : 48.0 KHz
Compression mode : Lossy
Stream size : 58.3 MiB (9%)
Alignment : Aligned on interleaves
Interleave, duration : 24 ms (0.58 video frame)
Interleave, preload duration : 489 ms
Writing library : LAME3.97b
Encoding settings : -m j -V 4 -q 3 -lowpass 18.6 --abr 192

Скриншоты



Последний раз редактировалось: ArtZak (2014-08-09 20:12), всего редактировалось 2 раз(а)
[Торрент-статистика]
[Профиль]  [ЛС] 

ArtZak ®

Пол:

Стаж: 5 лет 1 месяц

Сообщений: 3008

Репутация: 1363 [+] [-]

Откуда: Россия

Пост 01-Авг-2014 23:45 (спустя 15 часов)

[Цитировать] 

Обновлено. Добавлена 5 серия.
[Торрент-статистика]
[Профиль]  [ЛС] 

ArtZak ®

Пол:

Стаж: 5 лет 1 месяц

Сообщений: 3008

Репутация: 1363 [+] [-]

Откуда: Россия

Пост 09-Авг-2014 20:06 (спустя 7 дней)

[Цитировать] 

Обновлено. Добавлена 6 серия.
[Торрент-статистика]
[Профиль]  [ЛС] 
Показать сообщения:    
Ответить на тему

Текущее время: Сегодня 08:38

Часовой пояс: GMT + 4



Вы не можете начинать темы
Вы не можете отвечать на сообщения
Вы не можете редактировать свои сообщения
Вы не можете удалять свои сообщения
Вы не можете голосовать в опросах
Вы не можете прикреплять файлы к сообщениям
Вы не можете скачивать файлы