Кислород / Под несчастливой звездой / Несчастные / Star-Crossed / Сезон: 1 / Серии: 1-13 (13) (Гэри Фледер / Gary Fleder, Гарри Синклер / Harry Sinclair) [2014, США, фантастика, мелодрама, WEB-DL 720p] MVO ("Sony Sci-Fi") & Sub (orig)

Ответить на тему
 
Автор
Сообщение

sergei78 ®

Пол:

Стаж: 3 года 2 месяца

Сообщений: 92

Репутация: 120 [+] [-]

Откуда: Бывший СССР: "Связист Кстово 100/40"

Пост 10-Июн-2014 23:58

[Цитировать] 

-Кислород / Под несчастливой звездой / Несчастные
Star-Crossed

«Two Worlds. Two Lives. One Hope»- Страна: США
Жанр: фантастика, мелодрама
Год выпуска: 2014 (1 сезон)
Продолжительность: 00:42:41
Перевод: Профессиональный (многоголосый, закадровый). Телеканал "Sony Sci-Fi"
Субтитры: английские.-Режиссер: Гэри Фледер / Gary Fleder, Гарри Синклер / Harry Sinclair, Майкл Цинберг / Michael Zinberg-В ролях:
Мэтт Лантер (Roman), Эйми Тигарден (Emery), Грэй Дэймон (Grayson), Малез Джоу (Julia Yeung), Грег Финли (Drake), Натали Холл (Taylor), Титус Макин мл. (Lukas), Челси Джиллигэн (Teri), Брина Паленсиа (Sophia), Виктория Габриэлль Платт (Gloria), Джесси Люкен (Eric), Тамо Пеникетт (Officer Beaumont)-Описание: Люди с другой планеты прибыли на Землю, где их разместили в охраняемом лагере. Спустя 10 лет Роман и шесть представителей его вида были по распоряжению властей переведены в обычную школу. Там он встречает и влюбляется в Эмери...-Качество: WEB-DL 720p
Контейнер: MKV
Видео: AVC, 1280x720 (16:9), 3818 kbps, 23,976 fps, 0,173 bpp
Аудио #1: русский / AC3 / 2.0 / 48 kHz / 192 kbps / 16 bit
Аудио #2: английский / AC3 / 5.1 / 48 kHz / 384 kbps / 16 bit-

Скриншоты


Вырезанное каналом.

Количество эпизодов, вырезанных каналом, растет как снежный ком. Если в 9 серии был вырезан 1 эпизод длительностью 11 сек, то к 11 серии количество купюр перевалило за 5. Указывать что и где вырезано, не вижу особого смысла, это можно понять по смыслу эпизодов. Вставлены заплатки из озвучки BaibaKo.tv.

Media Info

General
Unique ID : 175469072787369937865003145539166624791 (0x84021D398EB076E382619804A22B5C17)
Complete name : ...\Star-Crossed.S01.720p.WEB-DL.SSF\Star-Crossed.S01E01.720p.WEB-DL.SSF.mkv
Format : Matroska
Format version : Version 2
File size : 1.34 GiB
Duration : 42mn 41s
Overall bit rate : 4 484 Kbps
Movie name : Star-Crossed S01E01 'Pilot' by SPS
Encoded date : UTC 2014-05-22 23:57:51
Writing application : mkvmerge v6.9.1 ('Blue Panther') 64bit built on Apr 18 2014 18:23:38
Writing library : libebml v1.3.0 + libmatroska v1.4.1-Video
ID : 1
Format : AVC
Format/Info : Advanced Video Codec
Format profile : High@L3.1
Format settings, CABAC : No
Format settings, ReFrames : 2 frames
Codec ID : V_MPEG4/ISO/AVC
Duration : 42mn 41s
Bit rate : 3 819 Kbps
Width : 1 280 pixels
Height : 720 pixels
Display aspect ratio : 16:9
Frame rate : 23.976 fps
Color space : YUV
Chroma subsampling : 4:2:0
Bit depth : 8 bits
Scan type : Progressive
Bits/(Pixel*Frame) : 0.173
Stream size : 1.14 GiB (85%)
Language : English
Default : Yes
Forced : No
Color primaries : BT.709-5, BT.1361, IEC 61966-2-4, SMPTE RP177
Transfer characteristics : BT.709-5, BT.1361
Matrix coefficients : BT.709-5, BT.1361, IEC 61966-2-4 709, SMPTE RP177-Audio #1
ID : 2
Format : AC-3
Format/Info : Audio Coding 3
Mode extension : CM (complete main)
Codec ID : A_AC3
Duration : 42mn 41s
Bit rate mode : Constant
Bit rate : 192 Kbps
Channel(s) : 2 channels
Channel positions : Front: L R
Sampling rate : 48.0 KHz
Bit depth : 16 bits
Compression mode : Lossy
Stream size : 58.6 MiB (4%)
Title : Sony Sci-Fi
Language : Russian
Default : Yes
Forced : No-Audio #2
ID : 3
Format : AC-3
Format/Info : Audio Coding 3
Mode extension : CM (complete main)
Codec ID : A_AC3
Duration : 42mn 41s
Bit rate mode : Constant
Bit rate : 384 Kbps
Channel(s) : 6 channels
Channel positions : Front: L C R, Side: L R, LFE
Sampling rate : 48.0 KHz
Bit depth : 16 bits
Compression mode : Lossy
Stream size : 117 MiB (9%)
Language : English
Default : No
Forced : No-Text
ID : 4
Format : UTF-8
Codec ID : S_TEXT/UTF8
Codec ID/Info : UTF-8 Plain Text
Language : English
Default : No
Forced : No

Раздача ведётся путём добавления новых серий

Раздача ведётся путём добавления новых серий; при каждом добавлении создаётся новый торрент. Чтобы начать докачку новой серии, пользователям необходимо сделать следующее:
(1) остановить скачивание,
(2) удалить старый торрент у себя из клиента (старые серии удалять не надо),
(3) скачать новый торрент и запустить его у себя в клиенте вместо старого, при этом указать клиенту путь в старую папку куда и должно происходить скачивание новых серий.
Ваш клиент при этом должен произвести хеширование (проверку) старой папки (если не производит сам - помогите ему сделать это), и будет докачивать только те серии которых у вас ещё нет. Старые серии при этом не удаляются, а продолжают раздаваться!
Eсли вы уже удалили старые серии, то предотвратить повторную закачку старых серий можно, отжав галочку в соответствующих местах при запуске нового торрента. По возможности, желательно не удалять старые серии как можно дольше чтобы релизёр не столько продолжал раздавать старые серии, а смог сконцентрироваться на новых.
-

Кислород / Под несчастливой звездой / Несчастные 2 сезон — Закрыт каналом CW

Кислород / Под несчастливой звездой / Несчастные 2 сезон — Закрыт каналом CW Телеканал CW решил не продлевать сериал «Несчастные» / Кислород на второй сезон. Сериал дебютировал в середине сезона и рейтинги оказались достаточно тусклыми с 1,28 миллионами зрителей за эпизод. Последующие 13-ть эпизодов имели еще меньший рейтинг, что сделало это шоу star-crossed одним из самых низко-рейтинговых сериалов сети CW в этом году.
Сюжет вращается вокруг пары подростков — человека (Эйми Тигарден ) и одного пришельца (Мэтт Лантер) — они влюбляются в друг друга и борются с препятствиями, чтобы преодолеть дискриминацию и недоверие вокруг них.
Дата выхода Несчастные 2 сезон / Кислород — отменяется (сериал закрыт)
- -Добавлен 13 эп. В 12 эп. заменена русская аудиодорожка (16/06). Полный сезон. Качайте пожалуста.
[Торрент-статистика]
[Профиль]  [ЛС] 
Показать сообщения:    
Ответить на тему

Текущее время: Сегодня 10:05

Часовой пояс: GMT + 4



Вы не можете начинать темы
Вы не можете отвечать на сообщения
Вы не можете редактировать свои сообщения
Вы не можете удалять свои сообщения
Вы не можете голосовать в опросах
Вы не можете прикреплять файлы к сообщениям
Вы не можете скачивать файлы