Электронные жучки / Bugs / Сезон 1 / Серии 1-10(10) (Джон Страуд, Брайан Фарнэм, Кен Грив) [1995 г., Фантастика, Детектив, Приключения, DVDRip]

Ответить на тему
 
Автор
Сообщение

awk05 ®

Пол:

Стаж: 4 года 5 месяцев

Сообщений: 1352

Репутация: 275 [+] [-]

Откуда: Западная Украина Ривне

Пост 04-Июн-2014 16:30

[Цитировать] 

--Электронные жучки / Bugs-- Страна: Великобритания
Жанр: Фантастика, Детектив, Приключения.
Сезон/Серия: Сезон:1 /Серия 1-10 из 10
Продолжительность: 10 х 00:47:00
Год выпуска 1995
Перевод: Профессиональный закадровый многоголосый (МногоTV) + Original
Субтитры: отсутствуют--Режиссёр: Джон Страуд, Брайан Фарнэм, Кен Грив--В ролях: Джэй Гриффитс, Джесси Бердсалл, Крэйг МакЛахлан, Жан Харви, Паула Хант, Стефен Хотон, Гарет Маркс, Майкл Грандадж, Джозеф Мэй, Роберт Морган--Описание: Степень развития прогресса в мире людей отчетливее всего видна в преступном мире: все передовые идеи рано или поздно берутся на вооружение бандитами.
Команда из трех профессионалов в своем деле (Эд, Ник и Рос) расследует преступления, совершенные злыми гениями научно-технической мысли с помощью новейших технологий. В таинственных лабораториях разрабатываются все новые и новые методы электронных преступлений, а группа Эдда должна моментально среагировать на новую угрозу и найти методы нейтрализации коварных планов.--Качество видео:DVDRip
Формат видео: AVI
Видео кодек: MPEG4, XviD,
Аудио кодек: MP3
Видео: MPEG4, XviD, 640x480 (4:3), 25.000 fps, 1 029 Kbps (0.134 bit/pixel)
Аудио 1: MP3, 48.0 KHz, 2 ch, 128 Kbps, CBR [RUS]
Аудио 2: MP3, 48.0 KHz, 2 ch, 128 Kbps, CBR [ENG]отдельным файлом-- --

Список серий

01. Выход из улья
02. Корпорация убийц
03. Все под контролем
04. Смерть в воде
05. Свадебный выстрел
06. Невидимка
07. Манна небесная
08. Раскаленный металл
09. Рискованный шанс
10. Импульс

Тех. данные (MI)

Общее
Полное имя : E:\Сериалы новые\Bugs\Bugs.S01E01.Out.Of.The.Hive.DVDRip.XviD-N-(Rus)\Bugs.S01E01.Out.Of.The.Hive.DVDRip.XviD-N-(Rus).avi
Формат : AVI
Формат/Информация : Audio Video Interleave
Размер файла : 431 Мбайт
Продолжительность : 49 м.
Общий поток : 1214 Кбит/сек
Программа кодирования : VirtualDubModRus 1.5.10.2 (build 2542/release)
Библиотека кодирования : VirtualDubMod build 2542/release
Видео
Идентификатор : 0
Формат : MPEG-4 Visual
Профиль формата : Advanced Simple@L5
Параметр BVOP формата : 1
Параметр QPel формата : Нет
Параметр GMC формата : Без точки перехода
Параметр матрицы формата : Default (H.263)
Идентификатор кодека : XVID
Идентификатор кодека/Подсказка : XviD
Продолжительность : 49 м.
Битрейт : 1076 Кбит/сек
Ширина : 640 пикселей
Высота : 480 пикселей
Соотношение сторон : 4:3
Частота кадров : 25,000 кадров/сек
Цветовое пространство : YUV
Субдискретизация насыщенности : 4:2:0
Битовая глубина : 8 бит
Тип развёртки : Прогрессивная
Метод сжатия : С потерями
Бит/(Пиксели*Кадры) : 0.140
Размер потока : 382 Мбайт (89%)
Библиотека кодирования : XviD 1.2.0.dev47 (UTC 2006-11-01)
Аудио
Идентификатор : 1
Формат : MPEG Audio
Версия формата : Version 1
Профиль формата : Layer 3
Режим : Joint stereo
Расширение режима : MS Stereo
Идентификатор кодека : 55
Идентификатор кодека/Подсказка : MP3
Продолжительность : 49 м.
Вид битрейта : Постоянный
Битрейт : 128 Кбит/сек
Каналы : 2 канала
Частота : 48,0 КГц
Метод сжатия : С потерями
Размер потока : 45,5 Мбайт (11%)
Выравнивание : Соединение по промежуткам
Продолжительность промежутка : 40 мс. (1,00 видеокадр)
Время предзагрузки промежутка : 504 мс.
Аудио 2
Формат : MPEG Audio
Версия формата : Version 1
Профиль формата : Layer 3
Продолжительность : 49 м.
Вид битрейта : Постоянный
Битрейт : 128 Кбит/сек
Каналы : 2 канала
Частота : 48,0 КГц
Метод сжатия : С потерями
Размер потока : 45,5 Мбайт
Библиотека кодирования : LAME3.97
Настройки программы : -m s -V 4 -q 2 -lowpass 17 -b 128

Скриншоты


_________________


Последний раз редактировалось: awk05 (2014-06-04 17:19), всего редактировалось 2 раз(а)
[Торрент-статистика]
[Профиль]  [ЛС] 

Alav

Стаж: 4 года 8 месяцев

Сообщений: 13

Репутация: 7 [+] [-]

Пост 04-Июн-2014 16:41 (спустя 11 минут)

[Цитировать] 

Выложил бы сразу все 4 части в одной раздачи
[Торрент-статистика]
[Профиль]  [ЛС] 

awk05 ®

Пол:

Стаж: 4 года 5 месяцев

Сообщений: 1352

Репутация: 275 [+] [-]

Откуда: Западная Украина Ривне

Пост 04-Июн-2014 17:42 (спустя 1 час 1 минута)

[Цитировать] 

Alav, качество картинки тут самое нормальное

_________________
[Торрент-статистика]
[Профиль]  [ЛС] 
Показать сообщения:    
Ответить на тему

Текущее время: Сегодня 18:21

Часовой пояс: GMT + 4



Вы не можете начинать темы
Вы не можете отвечать на сообщения
Вы не можете редактировать свои сообщения
Вы не можете удалять свои сообщения
Вы не можете голосовать в опросах
Вы не можете прикреплять файлы к сообщениям
Вы не можете скачивать файлы