Жеребец / Hung / Сезон: 2 / Серии: 1-10 из 10 (Дэниэл Эттиэс / Daniel Attias, Бронуэн Хьюз / Bronwen Hughes, Ута Бризвитц / Uta Briesewitz) [2010, драма, комедия, HDTV-Rip] MVO (LostFilm) + Original

Ответить на тему
 
Автор
Сообщение

awk05 ®

Пол:

Стаж: 4 года 5 месяцев

Сообщений: 1352

Репутация: 275 [+] [-]

Откуда: Западная Украина Ривне

Пост 11-Апр-2014 00:20

[Цитировать] 

--Жеребец / Hung«It's hard to make an indecent living»-- Страна: США
Год выпуска: 2010
Жанр: драма, комедия
Сезон/Серия: Сезон:2 /Серия 1-10 из 10
Продолжительность: 10 х ~ 00:30:00
Перевод: Профессиональный (многоголосый, закадровый) "LostFilm" + Original
Cубтитры:английские--Режиссер: Дэниэл Эттиэс / Daniel Attias, Бронуэн Хьюз / Bronwen Hughes, Ута Бризвитц / Uta Briesewitz--В ролях: Томас Джейн (Ray Drecker), Джейн Адамс (Tanya Skagle), Чарли Сэкстон (Damon Drecker), Сианоа Смит-МакФи (Darby Drecker), Энн Хеч (Jessica Haxon), Ребекка Крескофф (Lenore Bernard), Грегг Генри (Mike), Эдди Джемисон (Ronnie Haxon), Ленни Джеймс (Charlie), Мэрилуиз Бёрк (Jessica's Mother), Стивен Амелл (Jason), Аланна Юбак (Yael Koontz)--Описание: Рэй когда-то был звездой бейсбола, но все это уже далеко позади. Сейчас он работает тренером баскетбольной школьной команды, от него ушла жена, он живет в простом домике со своими двумя детьми, и денег не хватает ни на что. После того как его дом сгорает, а дети переезжают к маме, он понимает, что надо в жизни что-то менять, так как жить на такие гроши больше просто невозможно. Единственное, что его отличает от остальных, так это его большое мужское достоинство, теперь он решает стать мужским эскортом, так как кроме этого он ничего не умеет.--Качество видео:HDTV-Rip
Формат видео: AVI
Видео кодек: MPEG4, XviD
Аудио кодек: MP3
Видео: 624x352 (16:9), 23,976 кадра/сек, 1344 Кбит/сек, (0.255 бит/пиксели*кадры)
Аудио 1: 2 канала Front: L R, 48,0 КГц, 128 Кбит/сек, 16 бит CBR[RUS] --

Список серий

01: Одним кончиком / Just the Tip*
02: Туссон - ключ к члену / Tuscon Is the Gateway to Dick or This Is Not Sexy
03: Дави интеллектом или Бам-бам-бам, коза драная / Mind Bullets or Bang Bang Bang Bang Motherfucker
04: Спой еще, Рэй или База / Sing It Again, Ray or Home Plate*
05: Аргентина манит негра или Спасибо, Джимми Картер / Sing It Again, Ray or Home Plate
06: Бобруйск / Beaverland
07: Средний восток - дело тонкое / The Middle East Is Complicated*
08: Третья база / Third Base or the Rash*
09: Нажиться на любви или Я - аллерген / Fat Off My Love or I'm the*
10: В расчете или Счастливейший мальчишка в Детройте / Even Steven or Luckiest Kid in Detroit

MediaInfo

Общее
Полное имя : G:\тест\Hung 2 - LostFilm.TV\Hung.S02E01.rus.LostFilm.TV.avi
Формат : AVI
Формат/Информация : Audio Video Interleave
Размер файла : 329 Мбайт
Продолжительность : 29 м.
Общий поток : 1542 Кбит/сек
Программа кодирования : Nandub v1.0rc2
Библиотека кодирования : Nandub build 1853/release
Видео
Идентификатор : 0
Формат : MPEG-4 Visual
Идентификатор кодека : XVID
Идентификатор кодека/Подсказка : XviD
Продолжительность : 29 м.
Продолжительность оригинала : 21 м.
Битрейт : 14,3 Мбит/сек
Ширина : 624 пикселя
Высота : 352 пикселя
Соотношение сторон : 16:9
Частота кадров : 23,976 кадра/сек
Цветовое пространство : YUV
Субдискретизация насыщенности : 4:2:0
Метод сжатия : С потерями
Бит/(Пиксели*Кадры) : 2.718
Размер потока : 2,15 Гбайт
Аудио
Идентификатор : 1
Формат : MPEG Audio
Идентификатор кодека : 55
Идентификатор кодека/Подсказка : MP3
Продолжительность : 29 м.
Продолжительность оригинала : 27 ч.
Битрейт : 128 Кбит/сек
Каналы : 2 канала
Частота : 48,0 КГц
Метод сжатия : С потерями
Размер потока : 1,45 Гбайт
Выравнивание : Соединение по промежуткам
Продолжительность промежутка : 24 мс. (0,58 видеокадр)
Время предзагрузки промежутка : 456 мс.

Скриншоты




_________________
[Торрент-статистика]
[Профиль]  [ЛС] 
Показать сообщения:    
Ответить на тему

Текущее время: Сегодня 16:40

Часовой пояс: GMT + 4



Вы не можете начинать темы
Вы не можете отвечать на сообщения
Вы не можете редактировать свои сообщения
Вы не можете удалять свои сообщения
Вы не можете голосовать в опросах
Вы не можете прикреплять файлы к сообщениям
Вы не можете скачивать файлы