Жеребец / Hung / Сезон: 1 / Серии: 1-10 из 10 (Дэниэл Эттиэс / Daniel Attias, Бронуэн Хьюз / Bronwen Hughes, Ута Бризвитц / Uta Briesewitz) [2009, драма, комедия, HDTV-Rip] MVO (LostFilm) + Original

Ответить на тему
 
Автор
Сообщение

awk05 ®

Пол:

Стаж: 4 года 5 месяцев

Сообщений: 1352

Репутация: 275 [+] [-]

Откуда: Западная Украина Ривне

Пост 11-Апр-2014 00:10

[Цитировать] 

--Жеребец / Hung«It's hard to make an indecent living»-- Страна: США
Год выпуска: 2009
Жанр: драма, комедия
Сезон/Серия: Сезон:1 /Серия 1-10 из 10
Продолжительность: 10 х ~ 00:30:00
Перевод: Профессиональный (многоголосый, закадровый) "LostFilm" + Original
Cубтитры:английские--Режиссер: Дэниэл Эттиэс / Daniel Attias, Бронуэн Хьюз / Bronwen Hughes, Ута Бризвитц / Uta Briesewitz--В ролях: Томас Джейн (Ray Drecker), Джейн Адамс (Tanya Skagle), Чарли Сэкстон (Damon Drecker), Сианоа Смит-МакФи (Darby Drecker), Энн Хеч (Jessica Haxon), Ребекка Крескофф (Lenore Bernard), Грегг Генри (Mike), Эдди Джемисон (Ronnie Haxon), Ленни Джеймс (Charlie), Мэрилуиз Бёрк (Jessica's Mother), Стивен Амелл (Jason), Аланна Юбак (Yael Koontz)--Описание: Рэй когда-то был звездой бейсбола, но все это уже далеко позади. Сейчас он работает тренером баскетбольной школьной команды, от него ушла жена, он живет в простом домике со своими двумя детьми, и денег не хватает ни на что. После того как его дом сгорает, а дети переезжают к маме, он понимает, что надо в жизни что-то менять, так как жить на такие гроши больше просто невозможно. Единственное, что его отличает от остальных, так это его большое мужское достоинство, теперь он решает стать мужским эскортом, так как кроме этого он ничего не умеет.--Качество видео:HDTV-Rip
Формат видео: AVI
Видео кодек: MPEG4, XviD
Аудио кодек: MP3
Видео: 624x352 (16:9), 23,976 кадра/сек, 1091 Кбит/сек, (0.207 бит/пиксели*кадры)
Аудио 1: 2 канала Front: L R, 48,0 КГц, 128 Кбит/сек, 16 бит CBR[RUS] --

Список серий

01: Pilot / Пилот*
02: Great Sausage or Can I Call You Dick? / Крутая сосиска или Могу я называть тебя Член?
03: Strange Friends or the Truth Is, You're Sexy / Странные друзья или Вообще-то ты секси
04: The Pickle Jar / Полная бочка проблем*
05: Do It, Monkey / Делай это, обезьянка
06: Doris Is Dead or Are We Rich or Are We Poor? / Дорис мертва или Мы богатые или бедные?
07: The Rita Flower or the Indelible Stench / Цветок по имени Рита или несмываемый смрад
08: Thith Ith a Prothetic or You Cum Just Right / Это протеф или Ты кончаешь как надо*
09: This Is America or Fifty Bucks / Это Америка или Пятьдесят баксов
10: A Dick and a Dream or Fight the Honey / Член и мечта или Борьба с медом

MediaInfo

Oбщее
Полное имя : G:\тест\Hung 1 - LostFilm.TV\Hung.s01e01.rus.LostFilm.TV.avi
Формат : AVI
Формат/Информация : Audio Video Interleave
Размер файла : 393 Мбайт
Продолжительность : 44 м.
Общий поток : 1232 Кбит/сек
Программа кодирования : Nandub v1.0rc2
Библиотека кодирования : Nandub build 1853/release
Видео
Идентификатор : 0
Формат : MPEG-4 Visual
Профиль формата : Advanced Simple@L5
Параметр BVOP формата : 1
Параметр QPel формата : Нет
Параметр GMC формата : Без точки перехода
Параметр матрицы формата : Выборочная
Идентификатор кодека : XVID
Идентификатор кодека/Подсказка : XviD
Продолжительность : 44 м.
Битрейт : 1091 Кбит/сек
Ширина : 624 пикселя
Высота : 352 пикселя
Соотношение сторон : 16:9
Частота кадров : 23,976 кадра/сек
Цветовое пространство : YUV
Субдискретизация насыщенности : 4:2:0
Битовая глубина : 8 бит
Тип развёртки : Прогрессивная
Метод сжатия : С потерями
Бит/(Пиксели*Кадры) : 0.207
Размер потока : 349 Мбайт (89%)
Библиотека кодирования : XviD 1.2.1 (UTC 2008-12-04)
Аудио
Идентификатор : 1
Формат : MPEG Audio
Версия формата : Version 1
Профиль формата : Layer 3
Режим : Joint stereo
Расширение режима : MS Stereo
Идентификатор кодека : 55
Идентификатор кодека/Подсказка : MP3
Продолжительность : 44 м.
Вид битрейта : Постоянный
Битрейт : 128 Кбит/сек
Каналы : 2 канала
Частота : 48,0 КГц
Метод сжатия : С потерями
Размер потока : 40,9 Мбайт (10%)
Выравнивание : Соединение по промежуткам
Продолжительность промежутка : 24 мс. (0,58 видеокадр)
Время предзагрузки промежутка : 480 мс.

Скриншоты




_________________
[Торрент-статистика]
[Профиль]  [ЛС] 
Показать сообщения:    
Ответить на тему

Текущее время: Сегодня 18:24

Часовой пояс: GMT + 4



Вы не можете начинать темы
Вы не можете отвечать на сообщения
Вы не можете редактировать свои сообщения
Вы не можете удалять свои сообщения
Вы не можете голосовать в опросах
Вы не можете прикреплять файлы к сообщениям
Вы не можете скачивать файлы