Викинги / Vikings / Сезон: 1 / Серии: 1-9 из 9 (Киаран Доннелли, Кен Джиротти, Йохан Ренк) [2013 г., боевик, драма, военный, история, WEB-DLRip 400p] MVO [NewStudio] + Original (ENG)

Ответить на тему
 
Автор
Сообщение

ArtZak ®

Пол:

Стаж: 5 лет 1 месяц

Сообщений: 3008

Репутация: 1363 [+] [-]

Откуда: Россия

Пост 04-Апр-2014 22:32

[Цитировать] 

- -◈ ВИКИНГИ ◈
«The Storm Is Coming»
- Год выпуска: 2013
Страна: Ирландия, Канада
Жанр: боевик, драма, военный, история
Сезон/Серия: сезон 1, серии 1-9 из 9
Продолжительность серии: ~00:43:00 / Серия
Перевод: Профессиональный (многоголосый, закадровый) [NewStudio]
Cубтитры: нет
Оригинальная аудиодорожка: английская
Режиссер: Киаран Доннелли, Кен Джиротти, Йохан Ренк
Производство: Irish Film Board, Shaw Media, Take 5 Productions, World 2000 Entertainment- -В ролях:
Трэвис Фиммел, Клайв Стэнден, Джессалин Гилсиг, Густаф Скарсгард, Кэтрин Уинник, Джордж Благден, Джефферсон Холл, Нэйтан О’Тул, Руби О’Лири, Джон Кэвэна и др.
Описание:
Сериал расскажет о приключениях Рагнара Лотброка, пытливого, неотразимого человека, всегда ищущего новые миры для завоевания, и об испытаниях, что выпадут у него на пути. Рагнар восстал, чтобы стать королём племён викингов. Норвежская легенда гласит, что он был прямым потомком Одина, бога войны и воинов.
Тип релиза: WEB-DLRip 400p
Контейнер: AVI
Видео кодек: XviD
Аудио кодек: MP3
Видео: 720x400 (1.80:1), 23.976 fps, XviD build 65 ~1530 kbps avg, 0.22 bit/pixel
Аудио #1: 48 kHz, MPEG Layer 3, 2 ch, ~192.00 kbps avg (Rusiian)
Аудио #2: 48 kHz, MPEG Layer 3, 2 ch, ~192.00 kbps avg (English)

MI

Код:
General
Complete name                            : Vikings.s01e01.WEBDLRip.NewStudio.TV.avi
Format                                   : AVI
Format/Info                              : Audio Video Interleave
File size                                : 612 MiB
Duration                                 : 44mn 21s
Overall bit rate                         : 1 929 Kbps
Writing application                      : VirtualDubMod 1.5.10.2 (build 2540/release)
Writing library                          : VirtualDubMod build 2540/release
Video
ID                                       : 0
Format                                   : MPEG-4 Visual
Format profile                           : Advanced Simple@L5
Format settings, BVOP                    : 2
Format settings, QPel                    : No
Format settings, GMC                     : No warppoints
Format settings, Matrix                  : Default (MPEG)
Codec ID                                 : XVID
Codec ID/Hint                            : XviD
Duration                                 : 44mn 20s
Bit rate                                 : 1 531 Kbps
Width                                    : 720 pixels
Height                                   : 400 pixels
Display aspect ratio                     : 16:9
Frame rate                               : 23.976 fps
Color space                              : YUV
Chroma subsampling                       : 4:2:0
Bit depth                                : 8 bits
Scan type                                : Progressive
Compression mode                         : Lossy
Bits/(Pixel*Frame)                       : 0.222
Stream size                              : 486 MiB (79%)
Writing library                          : XviD 65
Audio #1
ID                                       : 1
Format                                   : MPEG Audio
Format version                           : Version 1
Format profile                           : Layer 3
Mode                                     : Joint stereo
Codec ID                                 : 55
Codec ID/Hint                            : MP3
Duration                                 : 44mn 21s
Bit rate mode                            : Constant
Bit rate                                 : 192 Kbps
Channel count                            : 2 channels
Sampling rate                            : 48.0 KHz
Compression mode                         : Lossy
Stream size                              : 60.9 MiB (10%)
Alignment                                : Aligned on interleaves
Interleave, duration                     : 42 ms (1.00 video frame)
Interleave, preload duration             : 504 ms
Audio #2
ID                                       : 2
Format                                   : MPEG Audio
Format version                           : Version 1
Format profile                           : Layer 3
Mode                                     : Joint stereo
Codec ID                                 : 55
Codec ID/Hint                            : MP3
Duration                                 : 44mn 21s
Bit rate mode                            : Constant
Bit rate                                 : 192 Kbps
Channel count                            : 2 channels
Sampling rate                            : 48.0 KHz
Compression mode                         : Lossy
Stream size                              : 60.9 MiB (10%)
Alignment                                : Aligned on interleaves
Interleave, duration                     : 42 ms (1.00 video frame)
Interleave, preload duration             : 504 ms
Writing library                          : LAME3.99r
Encoding settings                        : -m j -V 4 -q 2 -lowpass 18.6 -b 192

Скриншоты

- -
[Торрент-статистика]
[Профиль]  [ЛС] 
Показать сообщения:    
Ответить на тему

Текущее время: Сегодня 19:35

Часовой пояс: GMT + 4



Вы не можете начинать темы
Вы не можете отвечать на сообщения
Вы не можете редактировать свои сообщения
Вы не можете удалять свои сообщения
Вы не можете голосовать в опросах
Вы не можете прикреплять файлы к сообщениям
Вы не можете скачивать файлы