Глейдс / The Glades / Сезон: 1-4 / Серии: 1-49 из 49 (Гари А. Рэндолл, Ли Роуз) [2011, боевик, драма, криминал, детектив, HDTVRip, WEB-DLRip] DVO (AlexFilm 2.0) + (To4ka) + Original

Ответить на тему
 
Автор
Сообщение

awk05 ®

Пол:

Стаж: 4 года 5 месяцев

Сообщений: 1352

Репутация: 275 [+] [-]

Откуда: Западная Украина Ривне

Пост 02-Апр-2014 20:16

[Цитировать] 

-- Глейдс / The Glades-- Год выпуска: 2010-2013
Страна: США
Жанр: боевик, драма, криминал, детектив
Сезон/Серия: Сезон:4 /Серия 1-49 из 49
Продолжительность: 49 x ~ 00:42:00
Перевод: Профессиональный двухголосый закадровый
Субтитры: отсутствуют--Режиссер: Гари А. Рэндолл, Эрик Ланёвилль, Келли Макин--В ролях: Мэтт Пассмор, Киле Санчес, Карлос Гомес, Джордан Уолл, Мишель Херд, Урия Шелтон, Анхель Луис Эрнандес, Алексис Уиндсор, Лоррэйн Капорасо, Терра МакКланг--Описание: Джим Лонгворт, детектив из отдела убийств производит неизгладимое впечатление на женщин, умен и красив, но чуточку слишком труден в общении. Ему пришлось покинуть Чикаго после неприятного случая, когда капитан полиции, его начальник подстрелил его, заподозрив роман между ним и его женой. Роман с женой начальника существовал только в воображении капитана полиции, но неприятности ожидали Джима самые настоящие. Покинув Чикаго не по доброй воле, он осел в городке Палм Глейдс, где жизнь похожа на тихое болото, обжигаемое лучами бесконечного солнца Флориды.
На первый взгляд, самое страшное, что может произойти в Палм Глейдс – очередной игрок в гольф получит солнечный удар в полуденное время. Только этот городок на краю Национального парка Эверглейдс, бесконечной череды болот, кишащих крокодилами, не погружен в такую идиллию, как кажется. Убийц там не меньше, чем в облачных районах страны. И каждый случай заставляет Джима отложить клюшку для гольфа и применить весь свой талант в раскрытии убийств, которым, в дополнение к полицейскому значку, его щедро наградила судьба.
В коротких перерывах между все новыми и новыми делами об убийствах, он умудряется совершенствоваться в гольфе и пытается встречаться с остроумной и симпатичной девушкой Калли, будущим доктором, у которой есть 12-летний сын, а муж пребывает в местах, не столь отдаленных. Вжиться в новое окружение оказывается для Джима совсем не простым делом. Скоро он начинает понимать, что прогнозы погоды не врут: «Солнечно... возможны убийства».-- --

Главные герои

Мэтт Пассмор — Детектив Джим Лонгворт, дерзкий, уверенный в себе полицейский, обладающий острым умом, быстро раскрывающий преступления. Переезжает из Чикаго, после того, как капитан подстрелил его за то, что заподозрил в связи со своей женой. Он думает, что во Флориде будет расслабляться и между делом выписывать штрафы за парковку, но на самом деле уровень преступности оказывается очень высоким. Джим испытывает сильное чувство к Калли, но не хочеть разрушать ее семью.
Киле Санчес — Калли Каргил, мать-одиночка со сложной, запутанной жизнью. Она работает медсестрой в больнице, а также посещающет медицинскую школу для продолжения образования. Одна воспитывает тринадцатилетнего сына Джеффа, после того, как ее мужа осудили на 5 лет за вооруженное ограбление. Вначале ее раздражает заигрывания Лонгворта, и она говорит ему, что она не та женщина, которая изменяет мужу или подает на развод, пока тот в тюрьме. Однако ее влечет к Джиму, и в конце концов она решается просить Рэя дать ей развод. По просьбе Колин становится судебной медсестрой.
Карлос Гомес — Доктор Карлос Санчес, друг и напарник Джима, патологоанатом в судебной лаборатории. Упорство и интуиция Лонгворта, когда дело касается убийства обычно его раздражает, так как он в ущерб своей работе вынужден отстаивать позицию друга и находить подтверждения его идеям. Карлос является преданным мужем и отцом.
Урия Шелтон — Джефф Каргил, сын Калли, тринадцатилетний сообразительный мальчик, который изо всех сил старается примирить своих родителей. Пока его отец в тюрьме, Джефф постоянно проверяет границы дозволенного, а когда Рэй выходит, проводит с ним много времени. Он сразу же подружился с Лонгвортом.
Джордан Уолл — Дэниэл Грин, талантливый двадцатитрехлетний аспирант, который проходит стажировку, работая у Карлоса в медицинской лаборатории. Его знания и опыт во всех вещах, касающихся науки, очень помогают Лонгворту в раскрытии преступлений. Проявляет излишнее усердие, когда Лонгворту требуется его помощь за пределами лаборатории, так как он находит работу полиции крутой и интересной.
Мишель Хёрд — Колин Манус, глава местного департамента полиции. Неохотно взяла Лонгворта в штант, так как ее, как и Карлоса, Джим часто раздражает своими выходками. Однако его послужной список и невероятная скорость раскрытия преступления подкупают Колин, хотя она запросто осаждает Джима, если он переходит границу, что случается довольно часто.

Знаете ли Вы, что...

Рабочее название проекта — «Sugarloaf».
Мишель Херд и Клейн Кроуфорд ранее снимались еще в одном сериале о борцах с преступностью во Флориде — «C.S.I.: Майами» (2002).
Сыгранный Джорданом Уоллом аспирант-медик Дэниел Грин, перешедший на работу в криминалистическую лабораторию отдела по расследованию убийств, вначале был задуман как персонаж «на один эпизод», но так понравился создателям сериала, что они, переписав сценарий, сделали его постоянным героем «Болот».

Сезон 1

Перевод : Профессиональный двухголосый закадровый (AlexFilm)
Режиссер: Гэри А. Рэндалл, Ли Роуз, Келли Макин, Джонатан Фрэйкс, Тимоти Басфилд, Джефф Блэкнер--В ролях: Мэтт Пассмор, Киле Санчес, Карлос Гомес, Джордан Уолл, Мишель Херд, Урия Шелтон, Анхель Луис Эрнандес, Алексис Уиндсор, Лоррэйн Капорасо, Терра МакКланг--Качество видео:HDTVRip
Формат видео: AVI
Видео кодек: MPEG4, XviD
Аудио кодек: MP3
Видео: 624x352 (16:9), 25.000 кадра/сек, 907 Кбит/сек, 0.165 Бит/(Пиксели*Кадры)
Аудио 1: 2 канала Front: L R, 48,0 КГц, 128 Кбит/сек, 16 бит CBR[RUS]
Аудио 2: 2 канала Front: L R, 48,0 КГц, 128 Кбит/сек, 16 бит CBR[ENG]

Список серий

1 «Pilot» «Пилотная серия»
После изгнания во Флориду, за то, что он якобы спит с женой своего капитана, экс-полицейский Чикаго Джим Лонгворт расследует свое первое дело с местной полицией. Это дело об безглавленной женщине, которую невозможно опознать, найденной в озере. Джиму помогает партнер по гольфу Карлос, судебно-медицинский эксперт, а также он знакомится с медсестрой местной больницы Калли.
2 «Bird in the Hand» «Птичка в руке»
Когда Джим помогает сыну Калли Джеффу ловить на болоте насекомых для урока биологии, он находит брошенный самолет и труп рядом с ним.
3 «A Perfect Storm» «Идеальный шторм»
Лонгворт оказывается втянутым в расследование убийств, которые выглядят как серийные, а тем временем на город надвигается ураган.
4 «Mucked Up» «Брошенные»
Труп бизнесмена показывается из грязи в поле сахарного тростника за несколько дней до большой игры в футбол.
5 «The Girlfriend Experience» «Опыт с девушкой»
Лонгворт получает ужасное сообщение, что Карлос был найден мертвым в кровате, полной рыбы, но оказывается, что это не Карлос, а просто человек с его документами и кредиткой. Между тем Калли сталкивается с налоговыми проблемами.
6 «Doppelganger» «Демонический двойник»
Человек с серьёзной травмой головы утверждает, что стал свидетелем убийства и нападения и считает, что убийца выглядит точно так же, как он.
7 «Cassadaga» «Кассадага»
Лонгворт и Карлос расследование убийства ясновидящего приводит в город Кассадага, где проживают куча медиумов и экстрасенсов. Там одна из ясновидящих сообщает Джиму, что кто-то из его окружения скоро погибнет.
8 «Marriage Is Murder» «Сводьба это убийство»
Жесткий адвокат по разводам убит, и Джим получает это дело. Между тем сын Калли Джефф утверждает, что видел человека, стоящего у окна, но Калли считает, что он это воображает. Считая, что Джефф говорит правду, Джим разрешает мальчику просмотреть досье на полицейском компьютере. Джефф узнает правду о криминальном прошлом своего отца и обвиняет маму в том, что она скрыла это от него.
9 «Honey» «Милашка»
Последний случай Джима приводит его в казино «Блю Рок», элитное игорное заведение заполненное памятными вещами рок-н-ролла на миллионы долларов, принадлежащий знаменитому американскому индейцу. Лонгворт должн выяснить, кто стоит за загадочной смертью женщины. Было ли это самоубийство или нечестная игра?
10 «Second Chance» «Второй шанс»
Мертвец в бассейне приводит Лонгворта и Карлоса в мир коневодства высокого класса. Калли, которая когда-то хотела стать жокеем, становится пропуском Джима в мир заводчиков коней.
11 «Booty» «Трофей»
Когда убивают знаменитого кладоискателя, Джим Лонгворт погружается в мир сокровищ и обнаруживает, что жертва была близка к обнаружению мифического испанского корабля «Магдалена», на которой, как многие полагают, находится клад на миллионы доллоров.
12 «Exposed» «Незащищенный»
Смерть молодой женщины ставит Джима в противоречие с политической семьей, когда обнаруживается любовная связь жертвы с сенатором штата Флорида. Осложняет дело жена сенатора, которая делает все возможное, чтобы защитить политическую карьеру мужа, имя и связи ее семьи.
13 «Breaking 80» «Прорыв 80»
Человек, которого недавно выпустили из тюрьмы найден мертвыми в фарватере. Человек был кэдди и старым другом профессионального игрока в гольф Скотта Уинтерса. Лонгворт обнаруживает, что жертва могла отбывать срок за преступление, которого не совершала.

MediaInfo

Общее
Полное имя : G:\тест\The Glades\The.Glades.s01e01.HDTVRip.rus.eng.AlexFilm.avi
Формат : AVI
Формат/Информация : Audio Video Interleave
Размер файла : 417 Мбайт
Продолжительность : 47 м.
Общий поток : 1222 Кбит/сек
Программа кодирования : VirtualDubMod 1.5.10.2 (build 2540/release)
Библиотека кодирования : VirtualDubMod build 2540/release
Видео
Идентификатор : 0
Формат : MPEG-4 Visual
Профиль формата : Advanced Simple@L5
Параметр BVOP формата : 2
Параметр QPel формата : Нет
Параметр GMC формата : Без точки перехода
Параметр матрицы формата : Default (H.263)
Идентификатор кодека : XVID
Идентификатор кодека/Подсказка : XviD
Продолжительность : 47 м.
Битрейт : 952 Кбит/сек
Ширина : 624 пикселя
Высота : 352 пикселя
Соотношение сторон : 16:9
Соотношение сторон в оригинале : 16:9
Частота кадров : 25,000 кадров/сек
Цветовое пространство : YUV
Субдискретизация насыщенности : 4:2:0
Битовая глубина : 8 бит
Тип развёртки : Прогрессивная
Метод сжатия : С потерями
Бит/(Пиксели*Кадры) : 0.173
Размер потока : 325 Мбайт (78%)
Библиотека кодирования : XviD 1.1.2 (UTC 2006-11-01)
Аудио #1
Идентификатор : 1
Формат : MPEG Audio
Версия формата : Version 1
Профиль формата : Layer 3
Режим : Joint stereo
Расширение режима : MS Stereo
Идентификатор кодека : 55
Идентификатор кодека/Подсказка : MP3
Продолжительность : 47 м.
Вид битрейта : Постоянный
Битрейт : 128 Кбит/сек
Каналы : 2 канала
Частота : 48,0 КГц
Метод сжатия : С потерями
Размер потока : 43,7 Мбайт (10%)
Выравнивание : Соединение по промежуткам
Продолжительность промежутка : 40 мс. (1,00 видеокадр)
Время предзагрузки промежутка : 504 мс.
Аудио #2
Идентификатор : 2
Формат : MPEG Audio
Версия формата : Version 1
Профиль формата : Layer 3
Режим : Joint stereo
Расширение режима : MS Stereo
Идентификатор кодека : 55
Идентификатор кодека/Подсказка : MP3
Продолжительность : 47 м.
Вид битрейта : Постоянный
Битрейт : 128 Кбит/сек
Каналы : 2 канала
Частота : 44,1 КГц
Метод сжатия : С потерями
Размер потока : 43,7 Мбайт (10%)
Выравнивание : Разделение по промежуткам
Продолжительность промежутка : 40 мс. (1,00 видеокадр)
Время предзагрузки промежутка : 500 мс.

Скриншоты




Сезон 2

Перевод : Профессиональный двухголосый закадровый (AlexFilm)
Режиссер: Гэри А. Рэндалл. Ли Роуз Келли Макин Джонатан Фрэйкс Тимоти Басфилд Джефф Блэкнер--В ролях: Мэтт Пассмор, Киле Санчес, Карлос Гомес, Джордан Уолл, Мишель Херд, Урия Шелтон, Анхель Луис Эрнандес, Алексис Уиндсор, Лоррэйн Капорасо, Терра МакКланг--Качество видео:WEB-DLRip
Формат видео: AVI
Видео кодек: MPEG4, XviD
Аудио кодек: MP3
Видео: 720x400 (16:9), 23.976 кадра/сек, 1150 Кбит/сек, 0.167 Бит/(Пиксели*Кадры)
Аудио 1: 2 канала Front: L R, 48,0 КГц, 128 Кбит/сек, 16 бит CBR[RUS]
Аудио 2: 2 канала Front: L R, 48,0 КГц, 128 Кбит/сек, 16 бит CBR[ENG]

Список серий

1 «Family Matters» «По семейным обстоятельствам»
Дочь кубинского гангстера убита, и Джим должны разрешить дело, не допуская войны между соперничающими кланами. Калли готовится к возвращению Рэя из тюрьмы и говорит Джиму, что хочет быть с ним, но при этом обещает Рэю повременить с разводом три месяца. Манус предупреждает Джима о его отношениях с Калли и советует ему позволить семье самим решить их проблемы.
2 «Old Ghosts» «Призраки прошлого»
Джим охотится на серийного убийцу из Чикаго с помощью детектива Саманты Харпер, которая, как узнает Калли, его бывшая любовница. Колин Манус предлагает Калли работу судебной медсестры в департаменте полиции.
3 «Lost and Found» «Потерянное и найденное»
На повестке дня инцидент на вечеринке с ночевкой и пропажа младенца. Калли начинает работать на департамент полиции как судебная медсестра.
4 «Moonlighting» «Лунный свет»
Тело механика приводит к расследованию с участием NASCAR, а когда Рэй подвергается нападению на глазах у Джеффа, Калли считает необходимым поместить Рэя в программу защиты свидетелей.
5 «Dirty Little Secrets» «Маленькие грязные тайны»
Мертвый человек был найден в ванной, Карлос разрывется между гольфом, работой и семьей, а Калли и Джефф пытаются справиться с тем, что Рэй ушел из их жизни.
6 «Gibtown» «Гибтаун»
Город артистов цирка интермедии становится городом подозреваемых в убийстве. Калли и Джим пытаются понять, что значат их отношения. Кандидатура Сэм рассматривается для принятия на работу в департамент полиции.
7 «Addicted To Love» «Зависимый от любви»
След, ведущий от мертвого гаитянского врача приводит Джима на черный рынок лекарств.
8 «Second Skin» «Вторая кожа»
Мужчина, отравленный змеями, был найден в церкви.
9 «Iron Pipeline» «Железный трубопровод»
Наставник Джеффа, главный футбольный тренер школы, был найден на территории кампуса.
10 «Swamp Thing» «Болотное чудовище»
Ключ к убийству найден в вареном мясе животного. Джим и Калли возобновляют свои отношения.
11 «Beached» «Выброшенный на берег»
Любовный треугольник приводит к убийству. Калли сообщает Джиму великую новость.
12 «Shine» «Сияние»
Бухгалтеры возможно убили человека во время тематического круиза. Некто из прошлого Калли объявляет новость, которая может поставить под угрозу ее отношения с Джимом, больницу, в которой она работает и департамент полиции.
13 «Breakout» «Побег»
Два брата, бывших заключенных, взяли в больнице заложников, одной из которых оказалась Калли.

MediaInfo

Общее
Полное имя : G:\тест\The Glades\The.Glades.s02e01.WEB-DLRip.Rus.Eng.To4ka.avi
Формат : AVI
Формат/Информация : Audio Video Interleave
Размер файла : 450 Мбайт
Продолжительность : 44 м.
Общий поток : 1420 Кбит/сек
Программа кодирования : VirtualDubMod 1.6.0.0 SURROUND (build 2560/release)
Библиотека кодирования : VirtualDubMod build 2560/release
Видео
Идентификатор : 0
Формат : MPEG-4 Visual
Профиль формата : Advanced Simple@L5
Параметр BVOP формата : 1
Параметр QPel формата : Нет
Параметр GMC формата : Без точки перехода
Параметр матрицы формата : Default (H.263)
Идентификатор кодека : XVID
Идентификатор кодека/Подсказка : XviD
Продолжительность : 44 м.
Битрейт : 1150 Кбит/сек
Ширина : 720 пикселей
Высота : 400 пикселей
Соотношение сторон : 16:9
Частота кадров : 23,976 кадра/сек
Цветовое пространство : YUV
Субдискретизация насыщенности : 4:2:0
Битовая глубина : 8 бит
Тип развёртки : Прогрессивная
Метод сжатия : С потерями
Бит/(Пиксели*Кадры) : 0.167
Размер потока : 364 Мбайт (81%)
Библиотека кодирования : XviD 1.2.1 (UTC 2008-12-04)
Аудио #1
Идентификатор : 1
Формат : MPEG Audio
Версия формата : Version 1
Профиль формата : Layer 3
Режим : Joint stereo
Расширение режима : MS Stereo
Идентификатор кодека : 55
Идентификатор кодека/Подсказка : MP3
Продолжительность : 44 м.
Вид битрейта : Постоянный
Битрейт : 128 Кбит/сек
Каналы : 2 канала
Частота : 48,0 КГц
Метод сжатия : С потерями
Размер потока : 40,6 Мбайт (9%)
Выравнивание : Соединение по промежуткам
Продолжительность промежутка : 42 мс. (1,00 видеокадр)
Время предзагрузки промежутка : 504 мс.
Аудио #2
Идентификатор : 2
Формат : MPEG Audio
Версия формата : Version 1
Профиль формата : Layer 3
Режим : Joint stereo
Расширение режима : MS Stereo
Идентификатор кодека : 55
Идентификатор кодека/Подсказка : MP3
Продолжительность : 44 м.
Вид битрейта : Постоянный
Битрейт : 128 Кбит/сек
Каналы : 2 канала
Частота : 48,0 КГц
Метод сжатия : С потерями
Размер потока : 40,6 Мбайт (9%)
Выравнивание : Соединение по промежуткам
Продолжительность промежутка : 42 мс. (1,00 видеокадр)
Время предзагрузки промежутка : 504 мс.
Библиотека кодирования : LAME3.98r
Настройки программы : -m j -V 4 -q 2 -lowpass 17 -b 128

Скриншоты



Сезон 3

Перевод : Профессиональный двухголосый закадровый (AlexFilm)
Режиссер: Джефф Блэкнер Ли Роуз Рэндалл Зиск Эрик Ланавилль Келли Макин Гэри A. Рэндалл Эмили Левисетти
В ролях: Мэтт Пассмор, Киле Санчес, Карлос Гомес, Джордан Уолл, Мишель Херд, Урия Шелтон, Анхель Луис Эрнандес, Алексис Уиндсор, Лоррэйн Капорасо, Терра МакКланг--Качество видео:WEB-DLRip
Формат видео: AVI
Видео кодек: MPEG4, XviD
Аудио кодек: MP3
Видео: 720x400 (16:9), 23.976 кадра/сек, 1184 Кбит/сек, 0.172 Бит/(Пиксели*Кадры)
Аудио 1: 2 канала Front: L R, 48,0 КГц, 128 Кбит/сек, 16 бит CBR[RUS]
Аудио 2: 2 канала Front: L R, 48,0 КГц, 128 Кбит/сек, 16 бит CBR[ENG]

Список серий

1 «Close Encounters» «Близкие контакты»
2 «Poseidon Adventure» «Приключения Посейдона»
3 «Longworth's Anatomy» «Анатомия Лонгворта»
4 «The Naked Truth» «Голая правда»
5 «Food Fight» «Продуктовая война»
6 «Old Times» «Старые времена»
7 «Public Enemy» «Враг государства»
8 «Fountain of Youth» «Фонтан молодости»
9 «Islandia» «Исландия»
10 «Endless Summer» «Бесконечное лето»

MediaInfo

Общее
Полное имя : G:\тест\The Glades\The.Glades.s03e01.WEB-DLRip.Rus.Eng.To4ka.avi
Формат : AVI
Формат/Информация : Audio Video Interleave
Размер файла : 450 Мбайт
Продолжительность : 43 м.
Общий поток : 1454 Кбит/сек
Программа кодирования : VirtualDubMod 1.6.0.0 SURROUND (build 2560/release)
Библиотека кодирования : VirtualDubMod build 2560/release
Видео
Идентификатор : 0
Формат : MPEG-4 Visual
Профиль формата : Advanced Simple@L5
Параметр BVOP формата : 1
Параметр QPel формата : Нет
Параметр GMC формата : Без точки перехода
Параметр матрицы формата : Default (MPEG)
Идентификатор кодека : XVID
Идентификатор кодека/Подсказка : XviD
Продолжительность : 43 м.
Битрейт : 1184 Кбит/сек
Ширина : 720 пикселей
Высота : 400 пикселей
Соотношение сторон : 16:9
Частота кадров : 23,976 кадра/сек
Цветовое пространство : YUV
Субдискретизация насыщенности : 4:2:0
Битовая глубина : 8 бит
Тип развёртки : Прогрессивная
Метод сжатия : С потерями
Бит/(Пиксели*Кадры) : 0.172
Размер потока : 366 Мбайт (81%)
Библиотека кодирования : XviD 64
Аудио #1
Идентификатор : 1
Формат : MPEG Audio
Версия формата : Version 1
Профиль формата : Layer 3
Режим : Joint stereo
Идентификатор кодека : 55
Идентификатор кодека/Подсказка : MP3
Продолжительность : 43 м.
Вид битрейта : Постоянный
Битрейт : 128 Кбит/сек
Каналы : 2 канала
Частота : 48,0 КГц
Метод сжатия : С потерями
Размер потока : 39,6 Мбайт (9%)
Выравнивание : Соединение по промежуткам
Продолжительность промежутка : 42 мс. (1,00 видеокадр)
Время предзагрузки промежутка : 504 мс.
Аудио #2
Идентификатор : 2
Формат : MPEG Audio
Версия формата : Version 1
Профиль формата : Layer 3
Режим : Joint stereo
Расширение режима : MS Stereo
Идентификатор кодека : 55
Идентификатор кодека/Подсказка : MP3
Продолжительность : 43 м.
Вид битрейта : Постоянный
Битрейт : 128 Кбит/сек
Каналы : 2 канала
Частота : 48,0 КГц
Метод сжатия : С потерями
Размер потока : 39,6 Мбайт (9%)
Выравнивание : Соединение по промежуткам
Продолжительность промежутка : 42 мс. (1,00 видеокадр)
Время предзагрузки промежутка : 504 мс.

Скриншоты



Сезон 4

Перевод : Профессиональный двухголосый закадровый (AlexFilm)
Режиссер: Эмили Левисетти Джонатан Фрайкс Донна Дитч, Марк Роскин, Марта Кулидж, Рон Андервуд, Эрик Лоневилль
В ролях: Мэтт Пассмор, Киле Санчес, Карлос Гомес, Джордан Уолл, Мишель Херд, Урия Шелтон, Анхель Луис Эрнандес, Алексис Уиндсор, Лоррэйн Капорасо, Терра МакКланг--Качество видео:WEB-DLRip
Формат видео: AVI
Видео кодек: MPEG4, XviD
Аудио кодек: MP3
Видео: 720x400 (16:9), 23.976 кадра/сек, 1165 Кбит/сек, 0.169 Бит/(Пиксели*Кадры)
Аудио 1: 2 канала Front: L R, 48,0 КГц, 128 Кбит/сек, 16 бит CBR[RUS]
Аудио 2: 2 канала Front: L R, 48,0 КГц, 128 Кбит/сек, 16 бит CBR[ENG]

Список серий

1 «Yankee Dan» «Северянин Дэн»
Джим и Карлос расследуют убийство на старой плантации с приведениями. Калли дает Джиму ответ на его предложение.
2 «Shot Girls» «Застреленные девушки»
3 «Killer Barbecue» «Убийца барбекю»
4 «Magic Longworth» «Супер Лонгворт»
5 «Apocalypse Now» «Апокалипсис сейчас»
6 «Glade-iators!» «Болото-инаторы!»
7 «Gypsies, Tramps and Thieves» «Цыгане, бродяги и воры»
8 «Three's Company» «Компания трех»
9 «Fast Ball» «Быстрый бросок»
10 «Gallerinas» «Галлеринас»
11 «Civil War» «Гражданская война»
12 «Happy Trails» «Счастливая тропинка»
13 «Tin Cup» «Жестяной кубок»

MediaInfo

Общее
Полное имя : G:\тест\The Glades\The.Glades.s04e01.WEB-DLRip.Rus.Eng.To4ka.avi
Формат : AVI
Формат/Информация : Audio Video Interleave
Размер файла : 450 Мбайт
Продолжительность : 43 м.
Общий поток : 1435 Кбит/сек
Программа кодирования : VirtualDubMod 1.6.0.0 SURROUND (build 2560/release)
Библиотека кодирования : VirtualDubMod build 2560/release
Видео
Идентификатор : 0
Формат : MPEG-4 Visual
Профиль формата : Advanced Simple@L5
Параметр BVOP формата : 1
Параметр QPel формата : Нет
Параметр GMC формата : Без точки перехода
Параметр матрицы формата : Default (MPEG)
Идентификатор кодека : XVID
Идентификатор кодека/Подсказка : XviD
Продолжительность : 43 м.
Битрейт : 1165 Кбит/сек
Ширина : 720 пикселей
Высота : 400 пикселей
Соотношение сторон : 16:9
Частота кадров : 23,976 кадра/сек
Цветовое пространство : YUV
Субдискретизация насыщенности : 4:2:0
Битовая глубина : 8 бит
Тип развёртки : Прогрессивная
Метод сжатия : С потерями
Бит/(Пиксели*Кадры) : 0.169
Размер потока : 365 Мбайт (81%)
Библиотека кодирования : XviD 64
Аудио #1
Идентификатор : 1
Формат : MPEG Audio
Версия формата : Version 1
Профиль формата : Layer 3
Режим : Joint stereo
Расширение режима : MS Stereo
Идентификатор кодека : 55
Идентификатор кодека/Подсказка : MP3
Продолжительность : 43 м.
Вид битрейта : Постоянный
Битрейт : 128 Кбит/сек
Каналы : 2 канала
Частота : 48,0 КГц
Метод сжатия : С потерями
Размер потока : 40,1 Мбайт (9%)
Выравнивание : Соединение по промежуткам
Продолжительность промежутка : 42 мс. (1,00 видеокадр)
Время предзагрузки промежутка : 504 мс.
Аудио #2
Идентификатор : 2
Формат : MPEG Audio
Версия формата : Version 1
Профиль формата : Layer 3
Режим : Joint stereo
Идентификатор кодека : 55
Идентификатор кодека/Подсказка : MP3
Продолжительность : 43 м.
Вид битрейта : Постоянный
Битрейт : 128 Кбит/сек
Каналы : 2 канала
Частота : 48,0 КГц
Метод сжатия : С потерями
Размер потока : 40,1 Мбайт (9%)
Выравнивание : Соединение по промежуткам
Продолжительность промежутка : 42 мс. (1,00 видеокадр)
Время предзагрузки промежутка : 504 мс.
Библиотека кодирования : LAME3.98r
Настройки программы : -m j -V 4 -q 2 -lowpass 17 -b 128

Скриншоты




_________________
[Торрент-статистика]
[Профиль]  [ЛС] 
Показать сообщения:    
Ответить на тему

Текущее время: Сегодня 22:18

Часовой пояс: GMT + 4



Вы не можете начинать темы
Вы не можете отвечать на сообщения
Вы не можете редактировать свои сообщения
Вы не можете удалять свои сообщения
Вы не можете голосовать в опросах
Вы не можете прикреплять файлы к сообщениям
Вы не можете скачивать файлы