Мафиоза / Mafiosa, le clan / Сезон: 1 / Серии:1-8 (8) (Эрик Рошан, Луи Шокетт) [2006 г., Криминал, драма, DVDRip]

Ответить на тему
 
Автор
Сообщение

awk05 ®

Пол:

Стаж: 4 года 5 месяцев

Сообщений: 1352

Репутация: 275 [+] [-]

Откуда: Западная Украина Ривне

Пост 18-Мар-2014 19:02

[Цитировать] 

--Мафиоза / Mafiosa, le clan-- Год выпуска: 2006
Страна: Франция
Жанр: Криминал, драма
Сезон/Серия: Сезон:1 /Серия 1-8 из 8
Продолжительность: 8 x ~00:50:00
Перевод: Профессиональный (многоголосый, закадровый)
Субтитры: отсутствуют--Режиссер: Эрик Рошан, Луи Шокетт--В ролях: Элен Фийер, Тьерри Нёвик, Phareelle Onoyan, Эрик Фратичелли, Фридерик Грациани, Пьер-Мари Москони, Жан-Пьер Кальфон, Véronique Volta, Фабрицио Ронджоне, Каролин Баер--Описание: События французского сериала “Мафиоза” переносят нас на остров Корсику. Жители взбудоражены недавно произошедшим убийством. Неизвестный покусился на жизнь самого Франсуа Паоли, возглавлявшего самый влиятельный клан, убив его прямо посреди улицы, на глазах у множества прохожих.
Неожиданно для всех, место главы клана занимает 30-летняя Сандра, которую покойный шеф прочил в свои преемники. Однако, вся верхушка клана Паоли гудит - все возмущены тем, что теперь им придется подчиниться женщине! Единственный человек, который поддерживает Сандру - это её брат Жан-Мишель, который не колеблясь становится на защиту сестры.
На протяжении всех восьми серий, мы будем следить за тем, как Сандра будет отстаивать свою власть и при этом руководить всем кланом. А дел им предстоит провернуть немалое количество. Это и кража оружия у таможенников, и транспортировка ворованных драгоценностей, отмывание крупных сумм, а также торговля наркотиками.
Наша мафиоза оказалась один на один с жестоким и беспринципным миром мужчин, живущих в насилии и ей придется сделать невозможное - посредством женских уловок, манипуляций и соблазнений, восстановить свой авторитет и усилить влияние клана. Только так она сможет доказать всем и себе в том числе, что она - достойная преемница покойного Франсуа Паоли.--Качество видео:DVDRip
Формат видео: AVI
Видео кодек: MPEG4, DivX 5
Аудио кодек: MP3
Видео: 720x400 (1.80:1) 29.970 кадра/сек, 975 Кбит/сек, 0.113 Бит/(Пиксели*Кадры)
Аудио: 2 канала Front: L R, 48,0 КГц, 140 Кбит/сек, 16 бит VBR[RUS] -- --

MediaInfo

Общее
Полное имя : G:\тест\Mafioza_1-8(8)_[torrents.ru]\Mafioza.(8.iz.8).DivX.2006.DVDRip\Mafioza.1.seria.avi
Формат : AVI
Формат/Информация : Audio Video Interleave
Размер файла : 399 Мбайт
Продолжительность : 49 м.
Режим общего битрейта : Переменный
Общий поток : 1128 Кбит/сек
Программа кодирования : VirtualDubMod 1.5.4.1 (build 2178/release)
Библиотека кодирования : VirtualDubMod build 2178/release
Видео
Идентификатор : 0
Формат : MPEG-4 Visual
Параметр BVOP формата : Нет
Параметр QPel формата : Нет
Параметр GMC формата : Без точки перехода
Параметр матрицы формата : Default (H.263)
Идентификатор кодека : DX50
Идентификатор кодека/Подсказка : DivX 5
Продолжительность : 49 м.
Битрейт : 975 Кбит/сек
Ширина : 720 пикселей
Высота : 400 пикселей
Соотношение сторон : 16:9
Частота кадров : 29,970 кадров/сек
Цветовое пространство : YUV
Субдискретизация насыщенности : 4:2:0
Битовая глубина : 8 бит
Тип развёртки : Прогрессивная
Метод сжатия : С потерями
Бит/(Пиксели*Кадры) : 0.113
Размер потока : 345 Мбайт (86%)
Библиотека кодирования : DivX 5.0.5 (UTC 2003-04-24)
Аудио
Идентификатор : 1
Формат : MPEG Audio
Версия формата : Version 1
Профиль формата : Layer 3
Режим : Joint stereo
Расширение режима : MS Stereo
Идентификатор кодека : 55
Идентификатор кодека/Подсказка : MP3
Продолжительность : 49 м.
Вид битрейта : Переменный
Битрейт : 140 Кбит/сек
Номинальный битрейт : 192 Кбит/сек
Каналы : 2 канала
Частота : 48,0 КГц
Метод сжатия : С потерями
Размер потока : 49,5 Мбайт (12%)
Выравнивание : Соединение по промежуткам
Продолжительность промежутка : 24 мс. (0,72 видеокадр)
Время предзагрузки промежутка : 488 мс.
Библиотека кодирования : LAME3.97
Настройки программы : -m j -V 4 -q 2 -lowpass 18.6 --abr 192

Скриншоты





_________________
[Торрент-статистика]
[Профиль]  [ЛС] 
Показать сообщения:    
Ответить на тему

Текущее время: Сегодня 08:36

Часовой пояс: GMT + 4



Вы не можете начинать темы
Вы не можете отвечать на сообщения
Вы не можете редактировать свои сообщения
Вы не можете удалять свои сообщения
Вы не можете голосовать в опросах
Вы не можете прикреплять файлы к сообщениям
Вы не можете скачивать файлы