Избранный / Chosen / Сезон: 2 / Серии: 1-6 из 6 (Тоби Уилкинс, Бен Кетаи) [2013, психологический триллер, боевик, WEB-DLRip] DVO (Agatha Studdio) + Original

Ответить на тему
 
Автор
Сообщение

awk05 ®

Пол:

Стаж: 4 года 5 месяцев

Сообщений: 1352

Репутация: 275 [+] [-]

Откуда: Западная Украина Ривне

Пост 18-Мар-2014 18:20

[Цитировать] 

--Избранный / Chosen-- Год выпуска: 2013
Страна: США
Жанр: психологический триллер, боевик
Сезон/Серия: Сезон:2 /Серия 1-6 из 6
Продолжительность: 6 х 00:21:00
Перевод: Профессиональный (двухголосый закадровый) Agatha Studdio
Субтитры: отсутствуют--Режиссёр: Тоби Уилкинс, Бен Кетаи--В ролях: Кэйтлин Кармайкл, Никки Уилан, Майло Вентимилья, Чад Майкл Мюррэй, Джозеф Лутман, Сара Ремер, Дидрих Бадер, Джои Керн, Патрик Ст. Эсприт, Бретт Даверн--Описание: Продолжая историю семьи Митчеллов, сериал так же обращается и к другим Избранным, которые так же получили коробки, которые заставляют их убивать. Один из них Джейкоб Орр...--3 СЕЗОН ЗАКАЗАН--Качество видео:WEB-DLRip
Формат видео: AVI
Видео кодек: XviD
Аудио кодек: MP3
Видео: 656x368 (16:9), 23,976 кадра/сек, 1000 Кбит/сек, 0.170 Бит/(Пиксели*Кадры)
Аудио 1: 2 канала Front: L R, 48,0 КГц, 192 Кбит/сек, 16 бит [RUS]
Аудио 2: 2 канала Front: L R, 48,0 КГц, 192 Кбит/сек, 16 бит [ENG]-- --

MediaInfo

Общее
Полное имя : G:\тест\Chosen.s02_Agatha.Studdio\Chosen.s02e01_Agatha.Studdio.avi
Формат : AVI
Формат/Информация : Audio Video Interleave
Размер файла : 215 Мбайт
Продолжительность : 21 м.
Общий поток : 1406 Кбит/сек
Видео
Идентификатор : 0
Формат : MPEG-4 Visual
Профиль формата : Advanced Simple@L5
Параметр BVOP формата : 2
Параметр QPel формата : Нет
Параметр GMC формата : Без точки перехода
Параметр матрицы формата : Default (H.263)
Идентификатор кодека : XVID
Идентификатор кодека/Подсказка : XviD
Продолжительность : 21 м.
Битрейт : 998 Кбит/сек
Ширина : 656 пикселей
Высота : 368 пикселей
Соотношение сторон : 16:9
Частота кадров : 23,976 кадра/сек
Цветовое пространство : YUV
Субдискретизация насыщенности : 4:2:0
Битовая глубина : 8 бит
Тип развёртки : Прогрессивная
Метод сжатия : С потерями
Бит/(Пиксели*Кадры) : 0.172
Размер потока : 153 Мбайт (71%)
Библиотека кодирования : XviD 1.2.1 (UTC 2008-12-04)
Аудио #1
Идентификатор : 1
Формат : MPEG Audio
Версия формата : Version 1
Профиль формата : Layer 3
Режим : Joint stereo
Расширение режима : MS Stereo
Идентификатор кодека : 55
Идентификатор кодека/Подсказка : MP3
Продолжительность : 21 м.
Продолжительность оригинала : 21 м.
Вид битрейта : Постоянный
Битрейт : 192 Кбит/сек
Каналы : 2 канала
Частота : 48,0 КГц
Метод сжатия : С потерями
Размер потока : 29,4 Мбайт (14%)
Выравнивание : Соединение по промежуткам
Продолжительность промежутка : 24 мс. (0,58 видеокадр)
Библиотека кодирования : LAME3.98.2
Аудио #2
Идентификатор : 2
Формат : MPEG Audio
Версия формата : Version 1
Профиль формата : Layer 3
Режим : Joint stereo
Расширение режима : MS Stereo
Идентификатор кодека : 55
Идентификатор кодека/Подсказка : MP3
Продолжительность : 21 м.
Продолжительность оригинала : 21 м.
Вид битрейта : Постоянный
Битрейт : 192 Кбит/сек
Каналы : 2 канала
Частота : 48,0 КГц
Метод сжатия : С потерями
Размер потока : 29,4 Мбайт (14%)
Выравнивание : Соединение по промежуткам
Продолжительность промежутка : 24 мс. (0,58 видеокадр)
Библиотека кодирования : LAME3.98.2

Список серий

1 "Second Chances"
2 "Heroes and Villains"
3 "Right At Your Door"
4 "Killers"
5 "Collision Course"
6 "Protect Your Own"

Скриншоты


_________________
[Торрент-статистика]
[Профиль]  [ЛС] 
Показать сообщения:    
Ответить на тему

Текущее время: Сегодня 10:09

Часовой пояс: GMT + 4



Вы не можете начинать темы
Вы не можете отвечать на сообщения
Вы не можете редактировать свои сообщения
Вы не можете удалять свои сообщения
Вы не можете голосовать в опросах
Вы не можете прикреплять файлы к сообщениям
Вы не можете скачивать файлы