Льюис / Lewis / Сезон: 1 / Серии: 1-4 (4) + Bonus (Билл Андерсон, Дэн Рид, Николас Рентон) [2007 г., драма, криминал, детектив, DVDRip] MVO (ТВЦ) + Original

Ответить на тему
 
Автор
Сообщение

awk05 ®

Пол:

Стаж: 4 года 5 месяцев

Сообщений: 1352

Репутация: 275 [+] [-]

Откуда: Западная Украина Ривне

Пост 18-Мар-2014 05:06

[Цитировать] 

--Инспектор Льюис / Lewis--
Год выпуска: 2007
Страна: Великобритания
Жанр: драма, криминал, детектив
Сезон/Серия: Сезон:1 /Серия 1-4 из 4
Продолжительность серии: 4 х ~01:33:00
Перевод: Профессиональный многоголосый закадровый Selena International по заказу ТВЦ
Русские субтитры: нет--Режиссёр: Билл Андерсон, Дэн Рид, Николас Рентон, ...--В ролях: Кевин Уотли (DI Robert Lewis), Лоуренс Фокс (DS James Hathaway), Клер Холман (Dr. Laura Hobson), Ребекка Фронт (Chief Superintendent Jean Innocent), Элтон Летто (Gurdip Sohal), Алан Камминг (Алан Камминг), Мартин Мейджер (Gardener), Элисон Стэдмен (Rev Martha Seager), Катрин Стэдмен (Polly Beatty), Эрион Бакаре (Carl Drew), Лия Уильямс (Emma Barnes), Миранда Рэйсон (Stella Drew), Джейсон Дурр (DI Peterson), Питер Дэвисон (Peter Faulkner), Эдвард Фокс (Dr. Yardley), Таппенс Мидлтон (Vicki Walmsley)--Описание: Перед вами захватывающая детективная драма, в центре которой — жизнь и работа Роберта Льюиса, обаятельного полицейского, знакомого зрителям по популярному сериалу «Инспектор Морс». Через пять лет после смерти своего друга и начальника, Морса, инспектор Льюис возвращается на привычную территорию — в университетский городок Оксфорда. Теперь ему предстоит не только расследовать тяжкие преступления, но и противостоять натиску нового босса — женщины с весьма непростым характером.
Амбициозная студентка Оксфорда найдена убитой в своём гостиничном номере после приглашения знаменитого хакера, недавно вышедшего из тюрьмы, выступить в университете. Льюис и Хэтуэй принимаются за расследование этого дела, в котором есть всё — от рухнувших надежд и коварства близких до теней из прошлого Льюиса…--Качество видео:DVDRip
Формат видео: MKV
Видео кодек: AVC (High@L4.0
Аудио кодек: AC3
Видео: 716x572 (16:9), 23,976 кадра/сек, 2 500 Кбит/сек, 0.244 Бит/(Пиксели*Кадры)
Аудио 1: 2 канала Front: L R, 48,0 КГц, 192 Кбит/сек, 16 бит CBR [RUS]
Аудио 2: 6 каналов Front: L C R, Side: L R, LFE, 48,0 КГц, 448 Кбит/сек, 16 бит CBR [ENG]-- --

MI

Общее
Уникальный идентификатор : 109538661481489307965390842395290461650 (0x526860FA72A1104EC495639A1D4765D2)
Полное имя : G:\тест\Lewis Series 1 DVDRip TVC\Lewis.s01e00.Pilot.DVDRip.AVC.Rus(TVC).Eng.mkv
Формат : Matroska
Версия формата : Version 2
Размер файла : 2,04 Гбайт
Продолжительность : 1 ч. 33 м.
Общий поток : 3141 Кбит/сек
Название фильма : Lewis s01e00 TVC
Дата кодирования : UTC 2012-06-13 20:54:30
Программа кодирования : mkvmerge v5.3.0 ('I could have danced') built on Feb 11 2012 16:21:29
Библиотека кодирования : libebml v1.2.2 + libmatroska v1.3.0
Видео
Идентификатор : 1
Формат : AVC
Формат/Информация : Advanced Video Codec
Профиль формата : High@L4.0
Параметр CABAC формата : Да
Параметр ReFrames формата : 13 кадров
Идентификатор кодека : V_MPEG4/ISO/AVC
Продолжительность : 1 ч. 33 м.
Битрейт : 2500 Кбит/сек
Ширина : 716 пикселей
Высота : 572 пикселя
Соотношение сторон : 16:9
Режим частоты кадров : Постоянный
Частота кадров : 25,000 кадров/сек
Цветовое пространство : YUV
Субдискретизация насыщенности : 4:2:0
Битовая глубина : 8 бит
Тип развёртки : Прогрессивная
Бит/(Пиксели*Кадры) : 0.244
Размер потока : 1,59 Гбайт (78%)
Заголовок : Rip by ClubMember, from source DVDR.ACIDCOOL
Библиотека кодирования : x264 core 120
Настройки программы : cabac=1 / ref=13 / deblock=1:-2:-2 / analyse=0x3:0x113 / me=umh / subme=10 / psy=1 / psy_rd=1.00:0.00 / mixed_ref=1 / me_range=24 / chroma_me=1 / trellis=2 / 8x8dct=1 / cqm=0 / deadzone=21,11 / fast_pskip=0 / chroma_qp_offset=-2 / threads=3 / sliced_threads=0 / nr=0 / decimate=1 / interlaced=0 / bluray_compat=0 / constrained_intra=0 / bframes=16 / b_pyramid=2 / b_adapt=2 / b_bias=0 / direct=3 / weightb=1 / open_gop=0 / weightp=2 / keyint=250 / keyint_min=25 / scenecut=40 / intra_refresh=0 / rc=2pass / mbtree=0 / bitrate=2500 / ratetol=1.0 / qcomp=0.60 / qpmin=3 / qpmax=69 / qpstep=4 / cplxblur=20.0 / qblur=0.5 / ip_ratio=1.40 / pb_ratio=1.30 / aq=1:1.00
Язык : English
Default : Да
Forced : Нет
Основные цвета : BT.601 NTSC
Характеристики трансфера : BT.709
Коэффициенты матрицы : BT.601
Аудио #1
Идентификатор : 2
Формат : AC-3
Формат/Информация : Audio Coding 3
Расширение режима : CM (complete main)
Параметр Endianness формата : Big
Идентификатор кодека : A_AC3
Продолжительность : 1 ч. 33 м.
Вид битрейта : Постоянный
Битрейт : 192 Кбит/сек
Каналы : 2 канала
Расположение каналов : Front: L R
Частота : 48,0 КГц
Битовая глубина : 16 бит
Метод сжатия : С потерями
Размер потока : 128 Мбайт (6%)
Заголовок : Selena International по заказу ТВЦ 2.0 @ 192 Kbps
Язык : Russian
Default : Да
Forced : Нет
Аудио #2
Идентификатор : 3
Формат : AC-3
Формат/Информация : Audio Coding 3
Расширение режима : CM (complete main)
Параметр Endianness формата : Big
Идентификатор кодека : A_AC3
Продолжительность : 1 ч. 33 м.
Вид битрейта : Постоянный
Битрейт : 448 Кбит/сек
Каналы : 6 каналов
Расположение каналов : Front: L C R, Side: L R, LFE
Частота : 48,0 КГц
Битовая глубина : 16 бит
Метод сжатия : С потерями
Размер потока : 299 Мбайт (14%)
Заголовок : Original 5.1 @ 448 Kbps
Язык : English
Default : Нет
Forced : Нет
Меню
00:00:00.000 : en:Chapter 1
00:17:32.480 : en:Chapter 2
00:31:45.280 : en:Chapter 3
00:45:40.400 : en:Chapter 4
01:01:35.640 : en:Chapter 5
01:16:21.200 : en:Chapter 6
01:32:25.800 : en:Chapter 7

_________________
[Торрент-статистика]
[Профиль]  [ЛС] 
Показать сообщения:    
Ответить на тему

Текущее время: Сегодня 16:40

Часовой пояс: GMT + 4



Вы не можете начинать темы
Вы не можете отвечать на сообщения
Вы не можете редактировать свои сообщения
Вы не можете удалять свои сообщения
Вы не можете голосовать в опросах
Вы не можете прикреплять файлы к сообщениям
Вы не можете скачивать файлы