Быть Эрикой / Being Erica / Сезон 4 / Серии 1-13 (13) (Крис Грисмер, Холли Дэйл, Филип Ёрншоу [2011 г., фэнтези, драма, комедия, SATRip] MVO SDI Media + Original

Ответить на тему
 
Автор
Сообщение

awk05 ®

Пол:

Стаж: 4 года 5 месяцев

Сообщений: 1352

Репутация: 275 [+] [-]

Откуда: Западная Украина Ривне

Пост 15-Мар-2014 15:40

[Цитировать] 

--Быть Эрикой / Being Erica -- Год выпуска: 2011
Страна: Канада
Жанр: комедия, драма, фэнтэзи
Сезон/Серия: Сезон: 4 /Серия 1-11 из 11
Продолжительность: 11 х ~ 00:44:00
Перевод: Профессиональный многоголосый закадровый (SDI Media)
Субтитры: отсутствуют--Режиссёр: Крис Грисмер, Холли Дэйл, Филип Ёрншоу--В ролях: Эрин Карплук (Эрика Стрейндж), Тайрон Летсо (Итан Уэйкфилд), Винесса Антуан (Джудит Уинтер), Риган Пастернак (Джулианна Джакомелли), Морган Келли (Брент Кеннеди), Джон Бойлан (Гэри Стрейндж), Кэтлин Ласки (Барб Стрейндж), Джоанна Даглас (Саманта МакИнтош), Адам МакДональд (Джош МакИнтош), Паола Бранкати (Дженни Зэлен), Сара Гэйдон (Кэти Аткинс), Девон Бостик (Лео Стрейндж), Лоренса Лебёф (Клэр ЛеДук) и Майкл Райли (Доктор Том) и др.--Описание: Эрика — молодая женщина, у которой жизнь пошла не так, как нужно, из-за неверных решений. Неожиданно для себя она знакомится с доктором Томом, называющим себя психотерапевтом и любящим цитировать различных знаменитых людей, который предлагает Эрике свою помощь. Он просит её составить список всех неудачных моментов из прошлого, которые она хотела бы исправить, но ей, конечно, не приходит в голову, что именно он будет делать с этим списком. Доктор Том тем временем отправляет её назад в прошлое и, умудренная своим настоящим опытом, она обретает шанс исправить ситуацию так, как считает нужным. Однако, как выясняется, исправить прошлое — не самая главная её цель, намного важнее научиться жить своим умом и понять, что хотя мнение окружающих нельзя игнорировать, нельзя ценить его выше своего собственного.--Качество видео:SATRip
Формат видео: AVI
Видео кодек: MPEG4, XviD
Аудио кодек: MP3
Видео: 544x384 (1.584), 25.000 кадра/сек, 1 205 Кбит/сек, 0.231 Бит/(Пиксели*Кадры)
Аудио 1: 2 канала Front: L R, 48,0 КГц, 242 Кбит/сек, 16 бит, VBR [RUS]
Аудио 2: 2 канала Front: L R, 48,0 КГц, 242 Кбит/сек, 16 бит, VBR [ENG]-- --

MI

Общее
Полное имя : G:\тест\Being.Erica.S04.SATRip\Being.Erica.S04E01.Doctor.Who.SATRip.avi
Формат : AVI
Формат/Информация : Audio Video Interleave
Размер файла : 500 Мбайт
Продолжительность : 40 м.
Режим общего битрейта : Переменный
Общий поток : 1709 Кбит/сек
Видео
Идентификатор : 0
Формат : MPEG-4 Visual
Профиль формата : Advanced Simple@L5
Параметр BVOP формата : 1
Параметр QPel формата : Нет
Параметр GMC формата : Без точки перехода
Параметр матрицы формата : Default (H.263)
Режим смешивания : Сжатый битовый поток
Идентификатор кодека : XVID
Идентификатор кодека/Подсказка : XviD
Продолжительность : 40 м.
Битрейт : 1205 Кбит/сек
Ширина : 544 пикселя
Высота : 384 пикселя
Соотношение сторон : 16:10
Частота кадров : 25,000 кадров/сек
Цветовое пространство : YUV
Субдискретизация насыщенности : 4:2:0
Битовая глубина : 8 бит
Тип развёртки : Прогрессивная
Метод сжатия : С потерями
Бит/(Пиксели*Кадры) : 0.231
Размер потока : 353 Мбайт (71%)
Библиотека кодирования : XviD 1.2.1 (UTC 2008-12-04)
Аудио #1
Идентификатор : 1
Формат : MPEG Audio
Версия формата : Version 1
Профиль формата : Layer 3
Режим : Joint stereo
Идентификатор кодека : 55
Идентификатор кодека/Подсказка : MP3
Продолжительность : 40 м.
Вид битрейта : Переменный
Битрейт : 242 Кбит/сек
Каналы : 2 канала
Частота : 48,0 КГц
Метод сжатия : С потерями
Размер потока : 70,7 Мбайт (14%)
Выравнивание : Соединение по промежуткам
Продолжительность промежутка : 24 мс. (0,60 видеокадр)
Время предзагрузки промежутка : 190 мс.
Заголовок : russian
Библиотека кодирования : LAME3.98r
Настройки программы : -m j -V 4 -q 2 -lowpass 19.7 --abr
Аудио #2
Идентификатор : 2
Формат : MPEG Audio
Версия формата : Version 1
Профиль формата : Layer 3
Режим : Joint stereo
Идентификатор кодека : 55
Идентификатор кодека/Подсказка : MP3
Продолжительность : 40 м.
Вид битрейта : Переменный
Битрейт : 242 Кбит/сек
Каналы : 2 канала
Частота : 48,0 КГц
Метод сжатия : С потерями
Размер потока : 70,7 Мбайт (14%)
Выравнивание : Соединение по промежуткам
Продолжительность промежутка : 24 мс. (0,60 видеокадр)
Время предзагрузки промежутка : 197 мс.
Заголовок : english
Библиотека кодирования : LAME3.98r
Настройки программы : -m j -V 4 -q 2 -lowpass 19.7 --abr

_________________
[Торрент-статистика]
[Профиль]  [ЛС] 
Показать сообщения:    
Ответить на тему

Текущее время: Сегодня 06:23

Часовой пояс: GMT + 4



Вы не можете начинать темы
Вы не можете отвечать на сообщения
Вы не можете редактировать свои сообщения
Вы не можете удалять свои сообщения
Вы не можете голосовать в опросах
Вы не можете прикреплять файлы к сообщениям
Вы не можете скачивать файлы