Арн: Рыцарь-тамплиер / Arn-Tempelriddaren / Сезон:1 / Серия 1-6 из 6 (Петер Флинт) [2010 г.,боевик, драма, мелодрама, приключения, военный, DVDRip] MVO

Ответить на тему
 
Автор
Сообщение

awk05 ®

Пол:

Стаж: 4 года 5 месяцев

Сообщений: 1352

Репутация: 275 [+] [-]

Откуда: Западная Украина Ривне

Пост 12-Мар-2014 22:09

[Цитировать] 

--Арн: Рыцарь-тамплиер / Arn-Tempelriddaren-- Год выпуска: 2010
Страна: Швеция, Великобритания, Дания, Норвегия, Финляндия, Германия, Марокко
Жанр: боевик, драма, мелодрама, приключения, военный
Сезон/Серия: Сезон:1 /Серия 1-6 из 6
Продолжительность: 6 х 00:48:00
Перевод: Профессиональный (Многоголосый)
Субтитры: нет--Режиссер: Петер Флинт--В ролях: Йоаким Наттерквист, София Хелин, Стеллан Скарсгард, Морган Аллинг, Густаф Скарсгард, Фанни Рисберг, Милинд Соман, Дрисс Рухе, Биби Андерссон, Николас Болтон--Описание Сериала: Арн, сын высокопоставленного шведского дворянина, заканчивает свое монастырское обучение и, в наказание за свою запретную любовь, отправляется в Священные Земли в качестве рыцаря-тамплиера. Там ему суждено принять участие в битве при Хатине и других событиях, связанных с тяжёлыми временами Иерусалимского королевства...--Качество видео:DVDRip
Формат видео: AVI
Видео кодек: MPEG4, XviD
Аудио кодек: AC3
Видео: 720x400 (16:9), 25.000 кадра/сек, 1 863 Кбит/сек, 0.259 Бит/(Пиксели*Кадры)
Аудио: 2 канала Front: L R, 48,0 КГц, 192 Кбит/сек, 16 бит CBR[RUS] -- --

MediaInfo

Общее
Полное имя : E:\Сериалы новые\Арн Рыцарь-тамплиер\Arn.Tempelriddaren.s01e01.avi
Формат : AVI
Формат/Информация : Audio Video Interleave
Размер файла : 699 Мбайт
Продолжительность : 47 м.
Общий поток : 2065 Кбит/сек
Название фильма : Арн: Рыцарь-тамплиер. Сезон 1 / Arn - Tempelriddaren. Season 1 (2010)
Режиссёр : miha2154
Программа кодирования : VirtualDubMod 1.5.10.2 (build 2540/release)
Видео
Идентификатор : 0
Формат : MPEG-4 Visual
Профиль формата : Advanced Simple@L5
Параметр BVOP формата : 2
Параметр QPel формата : Нет
Параметр GMC формата : Без точки перехода
Параметр матрицы формата : Default (MPEG)
Идентификатор кодека : XVID
Идентификатор кодека/Подсказка : XviD
Продолжительность : 47 м.
Битрейт : 1863 Кбит/сек
Ширина : 720 пикселей
Высота : 400 пикселей
Соотношение сторон : 16:9
Частота кадров : 25,000 кадров/сек
Цветовое пространство : YUV
Субдискретизация насыщенности : 4:2:0
Битовая глубина : 8 бит
Тип развёртки : Прогрессивная
Метод сжатия : С потерями
Бит/(Пиксели*Кадры) : 0.259
Размер потока : 631 Мбайт (90%)
Библиотека кодирования : XviD 1.1.0 (UTC 2005-11-22)
Аудио
Идентификатор : 1
Формат : AC-3
Формат/Информация : Audio Coding 3
Расширение режима : CM (complete main)
Параметр Endianness формата : Big
Идентификатор кодека : 2000
Продолжительность : 47 м.
Вид битрейта : Постоянный
Битрейт : 192 Кбит/сек
Каналы : 2 канала
Расположение каналов : Front: L R
Частота : 48,0 КГц
Битовая глубина : 16 бит
Метод сжатия : С потерями
Размер потока : 65,0 Мбайт (9%)
Выравнивание : Соединение по промежуткам
Продолжительность промежутка : 40 мс. (1,00 видеокадр)
Время предзагрузки промежутка : 512 мс.
Заголовок : Профессиональный (многоголосый закадровый)

_________________
[Торрент-статистика]
[Профиль]  [ЛС] 
Показать сообщения:    
Ответить на тему

Текущее время: Сегодня 08:39

Часовой пояс: GMT + 4



Вы не можете начинать темы
Вы не можете отвечать на сообщения
Вы не можете редактировать свои сообщения
Вы не можете удалять свои сообщения
Вы не можете голосовать в опросах
Вы не можете прикреплять файлы к сообщениям
Вы не можете скачивать файлы