Древние / Первородные / The Originals / Сезон: 1 / Серии: 1-14 из 22 (Крис Грисмер, Джесси Уарн, Майкл А. Алловиц) [2013-2014 г., фантастика, боевик, драма, приключения, WEB-DLRip 400p] MVO [BaibaKo] + Original (ENG)

Ответить на тему
 
Автор
Сообщение

TiZAr ®

Пол:

Стаж: 3 года 3 месяца

Сообщений: 836

Репутация: 1157 [+] [-]

Откуда: Россия

Пост 02-Мар-2014 22:55

[Цитировать] 

- -Древние / Первородные / The Originals
«Retaining whats ours by helping others»
- Год выпуска: 2013-2014
Страна: США
Жанр: ужасы, фантастика, боевик, драма, приключения
Сезон/Серия: сезон 1, серии 1-14 из 22
Продолжительность серии: ~00:43:00 / Серия
Перевод: Профессиональный (многоголосый, закадровый) [BaibaKo]
Cубтитры: нет
Оригинальная аудиодорожка: английская
Режиссер: Крис Грисмер / Chris Grismer, Джесси Уарн / Jesse Warn, Майкл А. Алловиц / Michael A. Allowitz
Производство: Alloy Entertainment, Bonanza Productions, CBS Television Studios, My So-Called Company, Warner Bros. Television- -В ролях:
Джозеф Морган, Дэниэл Гиллис, Клер Холт, Фиби Тонкин, Чарльз Майкл Дэвис, Даниэлла Пинеда, Леа Пайпс, Даниэль Кэмпбелл, Шеннон Кэйн, Стивен Крюгер и др.
Описание:
До того, как появились вампиры, миром правили Первородные. Спустя долгие годы Клаус Майклсон (Джозеф Морган) возвращается в родной Новый Орлеан, который он когда-то помог построить. Там он встречает своего старого друга и ученика Марселя (Чарльз Майкл Дэвис). Последний навел в городе свои порядки и установил строгие правила на колдовство ведьм. Все это не касалось Клауса (который особо и не интересовался), пока однажды он не услышал, как бьется сердце его еще не рожденного ребенка. Появление наследника Первородного никак не укладывалось в новые порядки Марселя, поэтому теперь Клаусу предстоит сделать важнейший выбор в своей жизни.

Тип релиза: WEB-DLRip 400p | Сэмпл
Контейнер: AVI
Видео кодек: XviD
Аудио кодек: AC-3
Видео: MPEG4, XviD, 720x400 (16:9), 23.976 fps, 1 531 Kbps (0.222 bit/pixel)
Аудио #1: AC-3, 48.0 KHz, 2 ch, 128 Kbps, CBR
Аудио #2: AC-3, 48.0 KHz, 2 ch, 128 Kbps, CBR

Эпизоды

  • Always and Forever / Всегда и навечно
  • House of the Rising Son / Дом мятежного сына
  • Tangled Up in Blue / Заплутав в печали
  • Girl in New Orleans / Девушка в Новом Орлеане
  • Sinners and Saints / Святые и грешники
  • Fruit of the Poisoned Tree / Плод ядовитого дерева
  • Bloodletting / Кровопролитие
  • The River in Reverse / Повернуть время вспять
  • Reigning Pain in New Orleans / Бремя власти в Новом Орлеане
  • The Casket Girls / Девушки с характером
  • Apres Moi, Le Deluge / После нас хоть потоп
  • Dance Back from the Grave / Танец восставших из мертвых
  • Crescent City / Город полумесяца
  • Long Way Back from Hell / Долгая дорога из ада

MI

Код:
General
Complete name                            : E:\downloads\The.Originals.(s01).XviD\The.Originals.s01e01.WEB-DLRip.XviD.Rus.Eng.BaibaKo.tv.avi
Format                                   : AVI
Format/Info                              : Audio Video Interleave
File size                                : 548 MiB
Duration                                 : 42mn 33s
Overall bit rate                         : 1 801 Kbps
Writing application                      : VirtualDubMod 1.5.10.3 | www.virtualdub-fr.org || (build 2550/release)
Writing library                          : VirtualDubMod build 2550/release
Video
ID                                       : 0
Format                                   : MPEG-4 Visual
Format profile                           : Advanced Simple@L5
Format settings, BVOP                    : 1
Format settings, QPel                    : No
Format settings, GMC                     : No warppoints
Format settings, Matrix                  : Custom
Codec ID                                 : XVID
Codec ID/Hint                            : XviD
Duration                                 : 42mn 33s
Bit rate                                 : 1 531 Kbps
Width                                    : 720 pixels
Height                                   : 400 pixels
Display aspect ratio                     : 16:9
Frame rate                               : 23.976 fps
Color space                              : YUV
Chroma subsampling                       : 4:2:0
Bit depth                                : 8 bits
Scan type                                : Progressive
Compression mode                         : Lossy
Bits/(Pixel*Frame)                       : 0.222
Stream size                              : 466 MiB (85%)
Writing library                          : XviD 1.2.1 (UTC 2008-12-04)
Audio #1
ID                                       : 1
Format                                   : AC-3
Format/Info                              : Audio Coding 3
Mode extension                           : CM (complete main)
Format settings, Endianness              : Big
Codec ID                                 : 2000
Duration                                 : 42mn 33s
Bit rate mode                            : Constant
Bit rate                                 : 128 Kbps
Channel count                            : 2 channels
Channel positions                        : Front: L R
Sampling rate                            : 48.0 KHz
Bit depth                                : 16 bits
Compression mode                         : Lossy
Stream size                              : 39.0 MiB (7%)
Alignment                                : Split accross interleaves
Interleave, duration                     : 42 ms (1.00 video frame)
Interleave, preload duration             : 500 ms
Audio #2
ID                                       : 2
Format                                   : AC-3
Format/Info                              : Audio Coding 3
Mode extension                           : CM (complete main)
Format settings, Endianness              : Big
Codec ID                                 : 2000
Duration                                 : 42mn 33s
Bit rate mode                            : Constant
Bit rate                                 : 128 Kbps
Channel count                            : 2 channels
Channel positions                        : Front: L R
Sampling rate                            : 48.0 KHz
Bit depth                                : 16 bits
Compression mode                         : Lossy
Stream size                              : 39.0 MiB (7%)
Alignment                                : Split accross interleaves
Interleave, duration                     : 42 ms (1.00 video frame)
Interleave, preload duration             : 500 ms

Скриншоты




Внимание! Раздача ведётся путём добавления новых серий!

Раздача ведётся путём добавления новых серий; при каждом добавлении создаётся новый торрент. Чтобы начать докачку новой серии, пользователям необходимо сделать следующее:
  • остановить скачивание,
  • удалить старый торрент у себя из клиента (старые серии удалять не надо),
  • скачать новый торрент и запустить его у себя в клиенте вместо старого, при этом указать клиенту путь в старую папку куда и должно происходить скачивание новых серий.
Ваш клиент при этом должен произвести хеширование (проверку) старой папки (если не производит сам - помогите ему сделать это), и будет докачивать только те серии которых у вас ещё нет. Старые серии при этом не удаляются, а продолжают раздаваться!
Eсли вы уже удалили старые серии, то предотвратить повторную закачку старых серий можно, отжав галочку в соответствующих местах при запуске нового торрента. По возможности, желательно не удалять старые серии как можно дольше чтобы релизёр не столько продолжал раздавать старые серии, а смог сконцентрироваться на новых.

_________________
Не стоит обращать внимания на отсутствие сидов на моих раздачах. Все мои релизы мультитрекерные - нет сидов, включите DHT.
За релизами в HD качестве обращайтесь в личку, либо отписывайтесь в теме.
[Торрент-статистика]
[Профиль]  [ЛС] 
Показать сообщения:    
Ответить на тему

Текущее время: Сегодня 10:08

Часовой пояс: GMT + 4



Вы не можете начинать темы
Вы не можете отвечать на сообщения
Вы не можете редактировать свои сообщения
Вы не можете удалять свои сообщения
Вы не можете голосовать в опросах
Вы не можете прикреплять файлы к сообщениям
Вы не можете скачивать файлы