Волчонок / Teen Wolf / Сезон: 3 / Серии: 1-18 из 24 (Тим Эндрю / Tim Andrew, Рассел Малкэй / Russell Mulcahy, Тоби Уилкинс / Toby Wilkins) [2013, Ужасы, комедия, триллер, драма, WEB-DLRip] MVO (VO-production)

Ответить на тему
 
Автор
Сообщение

Волк ®

Пол:

Стаж: 5 лет

Сообщений: 689

Репутация: 292 [+] [-]

Откуда: Армения

Пост 20-Фев-2014 22:22

[Цитировать] 

Волчонок / Teen Wolf-
Год выпуска: 2013
Страна: США
Жанр: Ужасы, комедия,триллер, драма
Продолжительность: 00:41:20
Перевод: Профессиональный (многоголосый закадровый) VO-production
Субтитры: нет-Режиссёр: Тим Эндрю / Tim Andrew, Рассел Малкэй / Russell Mulcahy, Тоби Уилкинс / Toby Wilkins-В ролях: Дилан О’Брайэн, Тайлер Пози, Кристал Рид, Холлэнд Роден, Тайлер Хэклин, Колтон Хэйнс, Линден Эшби, ДжейАр Борн, Мелисса Понцио, Иэн Боэн-Описание: Скотт был просто обычным парнем, пока один укус не изменил его жизнь навсегда. Теперь он изо всех сил пытается понять, кто он и кем он может стать. В нём больше волка чем человека - или всё совсем наоборот? Как бы то ни было, легко не будет. Скотт попытается управлять своими наклонностями, но больше всего он боится, что эти его новые наклонности, в конце концов, начнут управлять им. «Волчонок» - история Скотта, то как он пытается идти по узкой границе между тем, чего он хочет и чего не может не хотеть. Станет ли случившееся с ним благословением? Или это будет проклятие? И как это отразится на его отношениях с Эллисон - девушкой, которую он так любит? Только время покажет, должен ли он принять свои новообретённые способности, или бояться их-Сэмпл-Качество: WEB-DLRip
Формат: AVI
Видео кодек: XviD
Аудио кодек: AC3
Видео: 720x400, 23.976 fps, 1100 kbps, 0.159 bit/pixel
Аудио: 48 kHz, AC3 Dolby Digital, 2/0 (L,R) ch, 192.00 kbps avg-

MediaInfo

Teen Wolf (VO-production) S03.WEB-DLRip\Teen_Wolf_0301_WEB-DLrip_VO-production.avi
Format : AVI
Format/Info : Audio Video Interleave
File size : 386 MiB
Duration : 41mn 28s
Overall bit rate : 1 301 Kbps
Writing application : VirtualDubMod 1.5.10.2 (build 2540/release)
Writing library : VirtualDubMod build 2540/release
Video
ID : 0
Format : MPEG-4 Visual
Format profile : Advanced Simple@L5
Format settings, BVOP : 2
Format settings, QPel : No
Format settings, GMC : No warppoints
Format settings, Matrix : Default (H.263)
Codec ID : XVID
Codec ID/Hint : XviD
Duration : 41mn 28s
Bit rate : 1 100 Kbps
Width : 720 pixels
Height : 400 pixels
Display aspect ratio : 16:9
Frame rate : 23.976 fps
Color space : YUV
Chroma subsampling : 4:2:0
Bit depth : 8 bits
Scan type : Progressive
Compression mode : Lossy
Bits/(Pixel*Frame) : 0.159
Stream size : 326 MiB (85%)
Writing library : XviD 1.2.0.dev47 (UTC 2006-11-01)
Audio
ID : 1
Format : AC-3
Format/Info : Audio Coding 3
Mode extension : CM (complete main)
Codec ID : 2000
Duration : 41mn 28s
Bit rate mode : Constant
Bit rate : 192 Kbps
Channel(s) : 2 channels
Channel positions : Front: L R
Sampling rate : 48.0 KHz
Bit depth : 16 bits
Compression mode : Lossy
Stream size : 56.9 MiB (15%)
Alignment : Split accross interleaves
Interleave, duration : 42 ms (1.00 video frame)
Interleave, preload duration : 500 ms

Скриншоты



Внимание! Раздача ведётся путём добавления новых серий.

Внимание! Раздача ведётся путём добавления новых серий; при каждом добавлении создётся новый торрент. Чтобы начать докачку новой серии, пользователям необходимо сделать следующее:
Остановить скачивание.
Удалить старый торрент у себя из клиента (старые серии удалять не надо).
Скачать новый торрент и запустить его у себя в клиенте вместо старого, при этом указать клиенту путь в старую папку куда и должно происходить скачивание новых серий.
Ваш клиент при этом должен произвести хеширование (проверку) старой папки (если не производит сам - помогите ему сделать это), и будет докачивать только те серии которых у вас ещё нет. Старые серии при этом не удаляются, а продолжают раздаваться!
Eсли вы уже удалили старые серии, то предотвратить повторную закачку старых серий можно, отжав галочку в соответсвующих местах при запуске нового торрента. По возможности, желательно не удалять старые серии как можно дольше чтобы релизёр не столько продолжал раздавать старые серии, а смог сконцентрироваться на новых.
[Торрент-статистика]
[Профиль]  [ЛС] 
Показать сообщения:    
Ответить на тему

Текущее время: Сегодня 06:28

Часовой пояс: GMT + 4



Вы не можете начинать темы
Вы не можете отвечать на сообщения
Вы не можете редактировать свои сообщения
Вы не можете удалять свои сообщения
Вы не можете голосовать в опросах
Вы не можете прикреплять файлы к сообщениям
Вы не можете скачивать файлы