Клондайк / Klondike / Сезон: 1 / Серии: 1-6 из 6 (Саймон Селлан Джоунс / Simon Cellan Jones) [2014 г., драма, приключения, вестерн, WEB-DLRip] DVO [Paradox]

Ответить на тему
 
Автор
Сообщение

TiZAr ®

Пол:

Стаж: 3 года 3 месяца

Сообщений: 836

Репутация: 1157 [+] [-]

Откуда: Россия

Пост 20-Фев-2014 00:28

[Цитировать] 

-Клондайк / Klondike
«What doesn't kill you makes you a fortune»
- Год выпуска: 2014
Страна: США, Канада
Жанр: драма, приключения, вестерн
Сезон/Серия: сезон 1, серии 1-6 из 6
Продолжительность серии: ~ 00:48:00 / Серия
Перевод: Любительский (двухголосый, закадровый) [Paradox]
Cубтитры: нет
Оригинальная аудиодорожка: нет
Режиссер: Саймон Селлан Джоунс / Simon Cellan Jones
Производство: Alberta Film Development Program of the Alberta Government, Discovery Channel, Entertainment One Television, Nomadic Pictures, Scott Free Productions- -В ролях:
Эбби Корниш, Мартон Чокаш, Иэн Харт, Грег Лосон, Конор Лесли, Ричард Мэдден, Тим Блейк Нельсон, Август Прю, Джонни Симмонс, Тим Рот и др.
Описание:
В центре сюжета — история шестерых золотоискателей, которые встречаются в долине реки Юкон во времена Золотой лихорадки. Им предстоит выжить в суровых северных краях, куда отправлялись самые отчаянные авантюристы.
Тип релиза: WEB-DLRip | Сэмпл
Контейнер: AVI
Видео кодек: XviD
Аудио кодек: AC3
Видео: MPEG4, XviD, 720x400 (16:9), 23.976 fps, 1 850 Kbps (0.268 bit/pixel)
Аудио: AC-3, 48.0 KHz, 2 ch, 192 Kbps, CBR

MI

Код:
General
Complete name                            : E:\downloads\Klondike.(s01).Paradox\Klondike.2014.S01E01.Paradox.WEBDLRip.avi
Format                                   : AVI
Format/Info                              : Audio Video Interleave
File size                                : 702 MiB
Duration                                 : 47mn 52s
Overall bit rate                         : 2 051 Kbps
Writing application                      : VirtualDubMod 1.5.10.2 (build 2540/release)
Writing library                          : VirtualDubMod build 2540/release
Video
ID                                       : 0
Format                                   : MPEG-4 Visual
Format profile                           : Advanced Simple@L5
Format settings, BVOP                    : 1
Format settings, QPel                    : No
Format settings, GMC                     : No warppoints
Format settings, Matrix                  : Default (H.263)
Codec ID                                 : XVID
Codec ID/Hint                            : XviD
Duration                                 : 47mn 52s
Bit rate                                 : 1 850 Kbps
Width                                    : 720 pixels
Height                                   : 400 pixels
Display aspect ratio                     : 16:9
Frame rate                               : 23.976 fps
Color space                              : YUV
Chroma subsampling                       : 4:2:0
Bit depth                                : 8 bits
Scan type                                : Progressive
Compression mode                         : Lossy
Bits/(Pixel*Frame)                       : 0.268
Stream size                              : 633 MiB (90%)
Writing library                          : XviD 1.2.1 (UTC 2008-12-04)
Audio
ID                                       : 1
Format                                   : AC-3
Format/Info                              : Audio Coding 3
Mode extension                           : CM (complete main)
Format settings, Endianness              : Big
Codec ID                                 : 2000
Duration                                 : 47mn 52s
Bit rate mode                            : Constant
Bit rate                                 : 192 Kbps
Channel count                            : 2 channels
Channel positions                        : Front: L R
Sampling rate                            : 48.0 KHz
Bit depth                                : 16 bits
Compression mode                         : Lossy
Stream size                              : 65.8 MiB (9%)
Alignment                                : Split accross interleaves
Interleave, duration                     : 42 ms (1.00 video frame)
Interleave, preload duration             : 500 ms

Скриншоты


_________________
Не стоит обращать внимания на отсутствие сидов на моих раздачах. Все мои релизы мультитрекерные - нет сидов, включите DHT.
За релизами в HD качестве обращайтесь в личку, либо отписывайтесь в теме.
[Торрент-статистика]
[Профиль]  [ЛС] 
Показать сообщения:    
Ответить на тему

Текущее время: Сегодня 20:29

Часовой пояс: GMT + 4



Вы не можете начинать темы
Вы не можете отвечать на сообщения
Вы не можете редактировать свои сообщения
Вы не можете удалять свои сообщения
Вы не можете голосовать в опросах
Вы не можете прикреплять файлы к сообщениям
Вы не можете скачивать файлы