Спасите Грейс / Saving Grace / Сезон: 1 / Серии 1-13 (13) (Арти Мандельберг / Artie Mandelberg, Тришиа Брок / Tricia Brock, Гай Ферленд / Guy Ferland) [2007 г., США, криминальная драма, DVDRip] (Первый канал)

Ответить на тему
 
Автор
Сообщение

awk05 ®

Пол:

Стаж: 4 года 5 месяцев

Сообщений: 1352

Репутация: 275 [+] [-]

Откуда: Западная Украина Ривне

Пост 17-Фев-2014 18:59

[Цитировать] 

-- --Спасите Грейс / Saving Grace-- Год выпуска: 2007
Страна: США
Жанр: криминальная драма
Сезон/Серия: Сезон:1 /Серия 1-13 из 13
Продолжительность: 13 х ~ 00:44:00
Перевод: 1-7,9-13 серии: Профессиональный (многоголосый, закадровый) |Первый канал|
8 серия : любительский (многоголосый,закадровый) |Gravi-TV|+ оригинал (английский)

Субтитры: отсутствуют--Режиссёр: Арти Мандельберг, Тришиа Брок, Гай Ферленд--В ролях: Холли Хантер (Grace Hanadarko), Леон Риппи (Earl), Кенни Джонсон (Ham Dewey), Бэйли Чейз ( Butch Ada), Лора Сан Джакомо (Rhetta Rodriguez), Грегори Норман Круз (Det. Bobby Stillwater), Лоррейн Туссен (Kate Perry), Дилан Миннетт (Clay Norman), Букем Вудбайн (Leon Cooley), Марк Л. Тейлор (Henry Silver), Яани Кинг (Neely Lloyd), Том Ирвин (Father John Hanadarko), Крис Малки (Doug Norman), Патрик Ст. Эсприт (Leo Hanadarko), Бенито Мартинес (Ronnie), Джессика Так (Paige Hanadarko), Эрин Кехилл (Kendra Burke), Гордон МакДональд (Hut Flanders), Арт Франкель (Chet), Джессика Уолтер (Betty Hanadarko), Эшли Уильямс (Amanda Dewey), Камиллия Сейнс (Marissa Stillwater)--Описание: Грэйс Ханадарко - детектив с серьезными эмоциональными проблемами. Она спит с женатым мужчиной (да и не одним), все свое свободное время проводит с бутылкой виски и (о ужас) не верит в то, что Бог может помочь людям. Она совершенно разочаровалась в жизни и ей плевать как на себя, так и на других (полное безучастие к делу о пропавшей 10-летней девочке). Но однажды с ней происходит чудо: изрядно накачавшись в баре она садится за руль и насмерть сбивает человека и видит перед собой ангела. Служитель рая представляется Эрлом и передает Грэйс послание - господь дает ей последний шанс…
Главная звезда сериала - обладательница Оскара Холи Хантер для которой это первый сериальный опыт.
--Качество видео:DVDRip
Формат видео: AVI
Видео кодек: XviD
Аудио кодек: MP3
Видео: 624x352 (16:9), 23,976 кадра/сек, ~ 966 Кбит/сек, 0.172 Бит/(Пиксели*Кадры)
Аудио 1: 2 канала Front: L R, 48,0 КГц, 128 Кбит/сек, 16 бит [RUS]
Аудио 2: 2 канала Front: L R, 48,0 КГц, 128 Кбит/сек, 16 бит [ENG]-- --

MediaInfo

Общее
Полное имя : E:\Сериалы новые\Saving Grac\Saving Grace-1\saving.grace.s01e01.dvdrip.rus.eng.avi
Формат : AVI
Формат/Информация : Audio Video Interleave
Размер файла : 395 Мбайт
Продолжительность : 46 м.
Режим общего битрейта : Переменный
Общий поток : 1183 Кбит/сек
Программа кодирования : VirtualDubMod 1.6.0.0 SURROUND (build 2560/release)
Библиотека кодирования : VirtualDubMod build 2560/release
Видео
Идентификатор : 0
Формат : MPEG-4 Visual
Профиль формата : Advanced Simple@L5
Параметр BVOP формата : 2
Параметр QPel формата : Нет
Параметр GMC формата : Без точки перехода
Параметр матрицы формата : Default (H.263)
Режим смешивания : Сжатый битовый поток
Идентификатор кодека : XVID
Идентификатор кодека/Подсказка : XviD
Продолжительность : 46 м.
Битрейт : 904 Кбит/сек
Ширина : 624 пикселя
Высота : 352 пикселя
Соотношение сторон : 16:9
Частота кадров : 23,976 кадра/сек
Цветовое пространство : YUV
Субдискретизация насыщенности : 4:2:0
Битовая глубина : 8 бит
Тип развёртки : Прогрессивная
Метод сжатия : С потерями
Бит/(Пиксели*Кадры) : 0.172
Размер потока : 302 Мбайт (76%)
Библиотека кодирования : XviD 1.1.2 (UTC 2006-11-01)
Аудио #1
Идентификатор : 1
Формат : MPEG Audio
Версия формата : Version 1
Профиль формата : Layer 3
Режим : Joint stereo
Расширение режима : MS Stereo
Идентификатор кодека : 55
Идентификатор кодека/Подсказка : MP3
Продолжительность : 46 м.
Вид битрейта : Постоянный
Битрейт : 128 Кбит/сек
Каналы : 2 канала
Частота : 48,0 КГц
Метод сжатия : С потерями
Размер потока : 42,7 Мбайт (11%)
Выравнивание : Соединение по промежуткам
Продолжительность промежутка : 42 мс. (1,00 видеокадр)
Время предзагрузки промежутка : 504 мс.
Аудио #2
Идентификатор : 2
Формат : MPEG Audio
Версия формата : Version 1
Профиль формата : Layer 3
Режим : Joint stereo
Расширение режима : MS Stereo
Идентификатор кодека : 55
Идентификатор кодека/Подсказка : MP3
Продолжительность : 46 м.
Вид битрейта : Переменный
Битрейт : 128 Кбит/сек
Каналы : 2 канала
Частота : 48,0 КГц
Метод сжатия : С потерями
Размер потока : 44,5 Мбайт (11%)
Выравнивание : Соединение по промежуткам
Продолжительность промежутка : 24 мс. (0,58 видеокадр)
Время предзагрузки промежутка : 412 мс.
Библиотека кодирования : LAME3.90.
Настройки программы : -m j -V 4 -q 2 -lowpass 17.6 --abr 128

Скриншоты



Список серий

Эпизод 01 Pilot (In the Beginning)
Эпизод 02 Bring It On, Earl
Эпизод 03 Bless Me, Father, For I Have Sinned
Эпизод 04 Keep Your Damn Wings Off My Nephew
Эпизод 05 Would You Want Me to Tell You?
Эпизод 06 And You Wonder Why I Lie
Эпизод 07 Yeehaw, Geepaw
Эпизод 08 Everything's Got a Shelf Life
Эпизод 09 A Language of Angels
Эпизод 10 It's Better When I Can See You
Эпизод 11 This Is Way Too Normal For You
Эпизод 12 Is There A Scarlet Letter On My Breast?
Эпизод 13 Tacos, Tulips, Ducks and Spices

_________________
[Торрент-статистика]
[Профиль]  [ЛС] 
Показать сообщения:    
Ответить на тему

Текущее время: Сегодня 10:55

Часовой пояс: GMT + 4



Вы не можете начинать темы
Вы не можете отвечать на сообщения
Вы не можете редактировать свои сообщения
Вы не можете удалять свои сообщения
Вы не можете голосовать в опросах
Вы не можете прикреплять файлы к сообщениям
Вы не можете скачивать файлы