Мертвая Зона / The Dead Zone / Сезон: 6 / серии 1-13 (13) (Джеймс Хэд / James Head, Джеймс А. Контнер / James A. Contner, Джон Лафия / John Lafia) [2003 г., фантастика, фэнтези, драма, детектив, DVDRip] MVO

Ответить на тему
 
Автор
Сообщение

awk05 ®

Пол:

Стаж: 4 года 5 месяцев

Сообщений: 1352

Репутация: 275 [+] [-]

Откуда: Западная Украина Ривне

Пост 11-Фев-2014 18:43

[Цитировать] 

--Мертвая Зона / The Dead Zone-- Год выпуска: 2007
Страна: США
Жанр: Мистика, Драма
Сезон/Серия: Сезон:6 /Серия 1-13 из 13
Продолжительность: 13 X 00:41:00
Перевод: Профессиональный (многоголосый, закадровый)
Субтитры: отсутствуют--Режиссер: Джеймс Хэд / James Head, Джеймс А. Контнер / James A. Contner, Джон Лафия / John Lafia--В ролях: Энтони Майкл Холл (Джон Смит), Николь де Бур (Сара (Брекнелл) Банерман), Крис Бруно (шериф Уолт Банерман), Джон Л. Адамс (Брюс Льюис), Дэвид Огден Стайерз (Reverend Eugene «Gene» Purdy), Билл Монди ( Deputy Roscoe), Спенсер Актимичук (Джонни 'Джей-Джей' Банерман), Шон Патрик Флэнери (Greg Stillson), Кристен Далтон (Dana Bright), Джим Френсис (Sonny Elliman)--Описание: Учитель из маленького городка Джон Смит накануне своей свадьбы попадает в автомобильную аварию, в результате которой проводит шесть лет в коме. Очнувшись, он обнаруживает у себя способность к видению прошлого и будущего после прикосновения к предметам или людям. Врачи объясняют его новые возможности активизацией ранее не используемой «мёртвой зоной» в его мозгу, который таким образом пытается компенсировать ухудшенную после катастрофы функциональность. Пока Джон «отсутствовал», его девушка Сара вышла за другого, с которым растит сына, зачатого в ночь перед аварией.
Вскоре Смит начинает использовать свои способности для расследования преступлений, в этом ему помогают друзья: Сара (бывшая невеста), Уолт (её муж и местный шериф) и физиотерапевт Брюс. Постепенно Джон выясняет, что его видения — не окончательный вариант будущего. Это будущее можно изменить, если «подправить» нужную деталь в настоящем.--Качество: DVDRip
Формат: AVI
Видео кодек: XviD
Аудио кодек: MP3
Видео: 624x352 (16:9), 23,976 кадра/сек, 1042 Кбит/сек, 0.198 Бит/(Пиксели*Кадры)
Аудио: 1 2 канала Front: L R, 48 КГц, 128 Кбит/сек[RUS]
Аудио: 2 2 канала Front: L R, 48 КГц, 128 Кбит/сек[ENG]-- --

Список серий

Эпизод 01 Heritage/Наследие
Эпизод 02 Ego/Эго
Эпизод 03 Re-Entry/Новый заход
Эпизод 04 Big Top/Под куполом цирка
Эпизод 05 Interred/Ко всему прочему...
Эпизод 06 Switch/Перемены
Эпизод 07 Numb/Онемение
Эпизод 08 Outcome/Выход
Эпизод 09 Transgression/Правонарушение
Эпизод 10 Drift/Плыть по течению
Эпизод 11 Exile/Изгнание
Эпизод 12 Ambush/Ловушка
Эпизод 13 Denouement/Разгадка

MediaInfo

Общее
Полное имя : E:\Сериалы новые\The Dead Zone.The Final Season\the.dead.zone.s06e01.dvdrip.rus.eng.gravi-tv.avi
Формат : AVI
Формат/Информация : Audio Video Interleave
Размер файла : 390 Мбайт
Продолжительность : 41 м.
Режим общего битрейта : Переменный
Общий поток : 1318 Кбит/сек
Программа кодирования : VirtualDubMod 1.6.0.0 SURROUND (build 2560/release)
Библиотека кодирования : VirtualDubMod build 2560/release
Видео
Идентификатор : 0
Формат : MPEG-4 Visual
Профиль формата : Advanced Simple@L5
Параметр BVOP формата : 2
Параметр QPel формата : Нет
Параметр GMC формата : Без точки перехода
Параметр матрицы формата : Default (H.263)
Режим смешивания : Сжатый битовый поток
Идентификатор кодека : XVID
Идентификатор кодека/Подсказка : XviD
Продолжительность : 41 м.
Битрейт : 1042 Кбит/сек
Ширина : 624 пикселя
Высота : 352 пикселя
Соотношение сторон : 16:9
Частота кадров : 23,976 кадра/сек
Цветовое пространство : YUV
Субдискретизация насыщенности : 4:2:0
Битовая глубина : 8 бит
Тип развёртки : Прогрессивная
Метод сжатия : С потерями
Бит/(Пиксели*Кадры) : 0.198
Размер потока : 308 Мбайт (79%)
Библиотека кодирования : XviD 1.2.0SMP (UTC 2006-01-08)
Аудио #1
Идентификатор : 1
Формат : MPEG Audio
Версия формата : Version 1
Профиль формата : Layer 3
Режим : Joint stereo
Расширение режима : MS Stereo
Идентификатор кодека : 55
Идентификатор кодека/Подсказка : MP3
Продолжительность : 41 м.
Вид битрейта : Постоянный
Битрейт : 128 Кбит/сек
Каналы : 2 канала
Частота : 48,0 КГц
Метод сжатия : С потерями
Размер потока : 37,9 Мбайт (10%)
Выравнивание : Соединение по промежуткам
Продолжительность промежутка : 42 мс. (1,00 видеокадр)
Время предзагрузки промежутка : 504 мс.
Аудио #2
Идентификатор : 2
Формат : MPEG Audio
Версия формата : Version 1
Профиль формата : Layer 3
Режим : Joint stereo
Расширение режима : MS Stereo
Идентификатор кодека : 55
Идентификатор кодека/Подсказка : MP3
Продолжительность : 41 м.
Вид битрейта : Переменный
Битрейт : 128 Кбит/сек
Каналы : 2 канала
Частота : 48,0 КГц
Метод сжатия : С потерями
Задержка видео : 8 мс.
Размер потока : 38,6 Мбайт (10%)
Выравнивание : Соединение по промежуткам
Продолжительность промежутка : 24 мс. (0,58 видеокадр)
Время предзагрузки промежутка : 394 мс.
Библиотека кодирования : LAME3.96.1ЄЄЄЄЄЄЄЄЄЄ

_________________
[Торрент-статистика]
[Профиль]  [ЛС] 
Показать сообщения:    
Ответить на тему

Текущее время: Сегодня 06:27

Часовой пояс: GMT + 4



Вы не можете начинать темы
Вы не можете отвечать на сообщения
Вы не можете редактировать свои сообщения
Вы не можете удалять свои сообщения
Вы не можете голосовать в опросах
Вы не можете прикреплять файлы к сообщениям
Вы не можете скачивать файлы