Мертвая Зона / The Dead Zone / Сезон: 3 / серии 1-12 (12) (Джеймс Хэд / James Head, Джеймс А. Контнер / James A. Contner, Джон Лафия / John Lafia) [2003 г., фантастика, фэнтези, драма, детектив, DVDRip] MVO

Ответить на тему
 
Автор
Сообщение

awk05 ®

Пол:

Стаж: 4 года 5 месяцев

Сообщений: 1352

Репутация: 275 [+] [-]

Откуда: Западная Украина Ривне

Пост 11-Фев-2014 18:06

[Цитировать] 

--Мертвая Зона / The Dead Zone-- Год выпуска: 2004
Страна: США
Жанр: Мистика, Драма
Сезон/Серия: Сезон:3 /Серия 1-12 из 12
Продолжительность: 12 X 00:42:00
Перевод: Профессиональный (многоголосый, закадровый)
Субтитры: отсутствуют--Режиссер: Джеймс Хэд / James Head, Джеймс А. Контнер / James A. Contner, Джон Лафия / John Lafia--В ролях: Энтони Майкл Холл (Джон Смит), Николь де Бур (Сара (Брекнелл) Банерман), Крис Бруно (шериф Уолт Банерман), Джон Л. Адамс (Брюс Льюис), Дэвид Огден Стайерз (Reverend Eugene «Gene» Purdy), Билл Монди ( Deputy Roscoe), Спенсер Актимичук (Джонни 'Джей-Джей' Банерман), Шон Патрик Флэнери (Greg Stillson), Кристен Далтон (Dana Bright), Джим Френсис (Sonny Elliman)--Описание: Учитель из маленького городка Джон Смит накануне своей свадьбы попадает в автомобильную аварию, в результате которой проводит шесть лет в коме. Очнувшись, он обнаруживает у себя способность к видению прошлого и будущего после прикосновения к предметам или людям. Врачи объясняют его новые возможности активизацией ранее не используемой «мёртвой зоной» в его мозгу, который таким образом пытается компенсировать ухудшенную после катастрофы функциональность. Пока Джон «отсутствовал», его девушка Сара вышла за другого, с которым растит сына, зачатого в ночь перед аварией.
Вскоре Смит начинает использовать свои способности для расследования преступлений, в этом ему помогают друзья: Сара (бывшая невеста), Уолт (её муж и местный шериф) и физиотерапевт Брюс. Постепенно Джон выясняет, что его видения — не окончательный вариант будущего. Это будущее можно изменить, если «подправить» нужную деталь в настоящем.--Качество: DVDRip
Формат: AVI
Видео кодек: XviD
Аудио кодек: MP3
Видео: 640x352 (16:9), 23,976 кадра/сек, 990 Кбит/сек, 0.183 Бит/(Пиксели*Кадры)
Аудио: 1 2 канала Front: L R, 48 КГц, 128 Кбит/сек[RUS]
Аудио: 2 2 канала Front: L R, 48 КГц, 160 Кбит/сек[ENG]-- --

Список серий

01 — Finding Rachel: Part 1 [06.06.2004]
02 — Finding Rachel: Part 2 [13.06.2004]
03 — Collision [20.06.2004]
04 — The Cold Hard Truth [27.06.2004]
05 — Total Awareness [04.07.2004]
06 — No Questions Asked [18.07.2004]
07 — Looking Glass [25.07.2004]
08 — Speak Now [01.08.2004]
09 — Cycle of Violence [08.08.2004]
10 — Instinct [15.08.2004]
11 — Shadows [22.08.2004]
12 — Tipping Point [22.08.2004]

MediaInfo

Общее
Полное имя : E:\Сериалы новые\Mjortvaja_zona_III_01-12_DVDRip_[torrents.ru]\The.Dead.Zone.s03e01.rus.eng.dvdrip.novafilm.tv.avi
Формат : AVI
Формат/Информация : Audio Video Interleave
Размер файла : 390 Мбайт
Продолжительность : 41 м.
Режим общего битрейта : Переменный
Общий поток : 1300 Кбит/сек
Программа кодирования : VirtualDubMod 1.5.10.2 (build 2542/release)
Библиотека кодирования : VirtualDubMod build 2542/release
Видео
Идентификатор : 0
Формат : MPEG-4 Visual
Профиль формата : Simple@L3
Параметр BVOP формата : 2
Параметр QPel формата : Нет
Параметр GMC формата : Без точки перехода
Параметр матрицы формата : Default (H.263)
Режим смешивания : Сжатый битовый поток
Идентификатор кодека : XVID
Идентификатор кодека/Подсказка : XviD
Продолжительность : 41 м.
Битрейт : 990 Кбит/сек
Ширина : 640 пикселей
Высота : 352 пикселя
Соотношение сторон : 16:9
Частота кадров : 23,976 кадра/сек
Цветовое пространство : YUV
Субдискретизация насыщенности : 4:2:0
Битовая глубина : 8 бит
Тип развёртки : Прогрессивная
Метод сжатия : С потерями
Бит/(Пиксели*Кадры) : 0.183
Размер потока : 297 Мбайт (76%)
Библиотека кодирования : XviD 1.1.0 Beta2 (UTC 2005-04-04)
Аудио #1
Идентификатор : 1
Формат : MPEG Audio
Версия формата : Version 1
Профиль формата : Layer 3
Режим : Joint stereo
Расширение режима : MS Stereo
Идентификатор кодека : 55
Идентификатор кодека/Подсказка : MP3
Продолжительность : 41 м.
Вид битрейта : Постоянный
Битрейт : 128 Кбит/сек
Каналы : 2 канала
Частота : 48,0 КГц
Метод сжатия : С потерями
Размер потока : 38,4 Мбайт (10%)
Выравнивание : Соединение по промежуткам
Продолжительность промежутка : 42 мс. (1,00 видеокадр)
Время предзагрузки промежутка : 504 мс.
Аудио #2
Идентификатор : 2
Формат : MPEG Audio
Версия формата : Version 1
Профиль формата : Layer 3
Режим : Joint stereo
Расширение режима : MS Stereo
Идентификатор кодека : 55
Идентификатор кодека/Подсказка : MP3
Продолжительность : 41 м.
Вид битрейта : Переменный
Битрейт : 160 Кбит/сек
Каналы : 2 канала
Частота : 48,0 КГц
Метод сжатия : С потерями
Размер потока : 49,2 Мбайт (13%)
Выравнивание : Соединение по промежуткам
Продолжительность промежутка : 24 мс. (0,58 видеокадр)
Время предзагрузки промежутка : 112 мс.
Библиотека кодирования : LAME3.96r
Настройки программы : -m j -V 4 -q 3 -lowpass 18 --abr 160

_________________
[Торрент-статистика]
[Профиль]  [ЛС] 
Показать сообщения:    
Ответить на тему

Текущее время: Сегодня 06:28

Часовой пояс: GMT + 4



Вы не можете начинать темы
Вы не можете отвечать на сообщения
Вы не можете редактировать свои сообщения
Вы не можете удалять свои сообщения
Вы не можете голосовать в опросах
Вы не можете прикреплять файлы к сообщениям
Вы не можете скачивать файлы