Мертвая Зона / The Dead Zone / Сезон: 2 / серии 1-19 (19) (Джеймс Хэд / James Head, Джеймс А. Контнер / James A. Contner, Джон Лафия / John Lafia) [2003 г., фантастика, фэнтези, драма, детектив, DVDRip] MVO

Ответить на тему
 
Автор
Сообщение

awk05 ®

Пол:

Стаж: 4 года 5 месяцев

Сообщений: 1352

Репутация: 275 [+] [-]

Откуда: Западная Украина Ривне

Пост 11-Фев-2014 17:52

[Цитировать] 

--Мертвая Зона / The Dead Zone-- Год выпуска: 2003
Страна: США
Жанр: Мистика, Драма
Сезон/Серия: Сезон:2 /Серия 1-19 из 19
Продолжительность: 19 X 00:43:00
Перевод: Профессиональный (многоголосый, закадровый)
Субтитры: отсутствуют--Режиссер: Джеймс Хэд / James Head, Джеймс А. Контнер / James A. Contner, Джон Лафия / John Lafia--В ролях: Энтони Майкл Холл (Джон Смит), Николь де Бур (Сара (Брекнелл) Банерман), Крис Бруно (шериф Уолт Банерман), Джон Л. Адамс (Брюс Льюис), Дэвид Огден Стайерз (Reverend Eugene «Gene» Purdy), Билл Монди ( Deputy Roscoe), Спенсер Актимичук (Джонни 'Джей-Джей' Банерман), Шон Патрик Флэнери (Greg Stillson), Кристен Далтон (Dana Bright), Джим Френсис (Sonny Elliman)--Описание: Учитель из маленького городка Джон Смит накануне своей свадьбы попадает в автомобильную аварию, в результате которой проводит шесть лет в коме. Очнувшись, он обнаруживает у себя способность к видению прошлого и будущего после прикосновения к предметам или людям. Врачи объясняют его новые возможности активизацией ранее не используемой «мёртвой зоной» в его мозгу, который таким образом пытается компенсировать ухудшенную после катастрофы функциональность. Пока Джон «отсутствовал», его девушка Сара вышла за другого, с которым растит сына, зачатого в ночь перед аварией.
Вскоре Смит начинает использовать свои способности для расследования преступлений, в этом ему помогают друзья: Сара (бывшая невеста), Уолт (её муж и местный шериф) и физиотерапевт Брюс. Постепенно Джон выясняет, что его видения — не окончательный вариант будущего. Это будущее можно изменить, если «подправить» нужную деталь в настоящем.--Качество: DVDRip
Формат: AVI
Видео кодек: XviD
Аудио кодек: MP3
Видео: 640x368 (1,739), 23,976 кадра/сек, 983 Кбит/сек, 0.174 Бит/(Пиксели*Кадры)
Аудио: 2 канала Front: L R, 44,1 КГц, 128 Кбит/сек[RUS]-- --

MediaInfo

Общее
Полное имя : E:\Сериалы новые\mertvaja_zona_II_01-19_DVDRip_[torrents.ru]\The.Dead.Zone.s02e01.rus.dvdrip.novafilm.avi
Формат : AVI
Формат/Информация : Audio Video Interleave
Размер файла : 348 Мбайт
Продолжительность : 43 м.
Общий поток : 1121 Кбит/сек
Программа кодирования : VirtualDubMod 1.5.10.2 (build 2542/release)
Библиотека кодирования : VirtualDubMod build 2542/release
Видео
Идентификатор : 0
Формат : MPEG-4 Visual
Профиль формата : Simple@L3
Параметр BVOP формата : Нет
Параметр QPel формата : Нет
Параметр GMC формата : Без точки перехода
Параметр матрицы формата : Default (H.263)
Идентификатор кодека : XVID
Идентификатор кодека/Подсказка : XviD
Продолжительность : 43 м.
Битрейт : 983 Кбит/сек
Ширина : 640 пикселей
Высота : 368 пикселей
Соотношение сторон : 1,739
Частота кадров : 23,976 кадра/сек
Цветовое пространство : YUV
Субдискретизация насыщенности : 4:2:0
Битовая глубина : 8 бит
Тип развёртки : Прогрессивная
Метод сжатия : С потерями
Бит/(Пиксели*Кадры) : 0.174
Размер потока : 305 Мбайт (88%)
Библиотека кодирования : XviD 0.0.12 (UTC 2003-06-11)
Аудио
Идентификатор : 1
Формат : MPEG Audio
Версия формата : Version 1
Профиль формата : Layer 3
Режим : Joint stereo
Расширение режима : MS Stereo
Идентификатор кодека : 55
Идентификатор кодека/Подсказка : MP3
Продолжительность : 43 м.
Вид битрейта : Постоянный
Битрейт : 128 Кбит/сек
Каналы : 2 канала
Частота : 44,1 КГц
Метод сжатия : С потерями
Размер потока : 39,7 Мбайт (11%)
Выравнивание : Разделение по промежуткам
Продолжительность промежутка : 42 мс. (1,00 видеокадр)
Время предзагрузки промежутка : 500 мс.

_________________
[Торрент-статистика]
[Профиль]  [ЛС] 
Показать сообщения:    
Ответить на тему

Текущее время: Сегодня 08:55

Часовой пояс: GMT + 4



Вы не можете начинать темы
Вы не можете отвечать на сообщения
Вы не можете редактировать свои сообщения
Вы не можете удалять свои сообщения
Вы не можете голосовать в опросах
Вы не можете прикреплять файлы к сообщениям
Вы не можете скачивать файлы