Мертвая Зона / The Dead Zone / Сезон: 1 / серии 1-13 (13) (Джеймс Хэд / James Head, Джеймс А. Контнер / James A. Contner, Джон Лафия / John Lafia) [2002 г., фантастика, фэнтези, драма, детектив, DVDRip] MVO

Ответить на тему
 
Автор
Сообщение

awk05 ®

Пол:

Стаж: 4 года 5 месяцев

Сообщений: 1352

Репутация: 275 [+] [-]

Откуда: Западная Украина Ривне

Пост 11-Фев-2014 17:35

[Цитировать] 

--Мертвая Зона / The Dead Zone-- Год выпуска: 2002
Страна: США
Жанр: Мистика, Драма
Сезон/Серия: Сезон:1 /Серия 1-13 из 13
Продолжительность: 13 X 00:42:00
Перевод: Профессиональный (многоголосый, закадровый)
Субтитры: отсутствуют--Режиссер: Джеймс Хэд / James Head, Джеймс А. Контнер / James A. Contner, Джон Лафия / John Lafia--В ролях: Энтони Майкл Холл (Джон Смит), Николь де Бур (Сара (Брекнелл) Банерман), Крис Бруно (шериф Уолт Банерман), Джон Л. Адамс (Брюс Льюис), Дэвид Огден Стайерз (Reverend Eugene «Gene» Purdy), Билл Монди ( Deputy Roscoe), Спенсер Актимичук (Джонни 'Джей-Джей' Банерман), Шон Патрик Флэнери (Greg Stillson), Кристен Далтон (Dana Bright), Джим Френсис (Sonny Elliman)--Описание: Учитель из маленького городка Джон Смит накануне своей свадьбы попадает в автомобильную аварию, в результате которой проводит шесть лет в коме. Очнувшись, он обнаруживает у себя способность к видению прошлого и будущего после прикосновения к предметам или людям. Врачи объясняют его новые возможности активизацией ранее не используемой «мёртвой зоной» в его мозгу, который таким образом пытается компенсировать ухудшенную после катастрофы функциональность. Пока Джон «отсутствовал», его девушка Сара вышла за другого, с которым растит сына, зачатого в ночь перед аварией.
Вскоре Смит начинает использовать свои способности для расследования преступлений, в этом ему помогают друзья: Сара (бывшая невеста), Уолт (её муж и местный шериф) и физиотерапевт Брюс. Постепенно Джон выясняет, что его видения — не окончательный вариант будущего. Это будущее можно изменить, если «подправить» нужную деталь в настоящем.--Качество: DVDRip
Формат: AVI
Видео кодек: DivX
Аудио кодек: MP3
Видео: 576x320 (16:9), 23,976 кадра/сек, 1035 Кбит/сек, 0.234 Бит/(Пиксели*Кадры)
Аудио: 2 канала Front: L R, 44,1 КГц, 96 Кбит/сек[RUS]-- --

MediaInfo

Общее
Полное имя : E:\Сериалы новые\The_Dead_Zone\The.Dead.Zone.s01e01.rus.dvdrip.novafilm.avi
Формат : AVI
Формат/Информация : Audio Video Interleave
Размер файла : 344 Мбайт
Продолжительность : 42 м.
Общий поток : 1141 Кбит/сек
Программа кодирования : VirtualDubMod 1.5.10.2 (build 2542/release)
Библиотека кодирования : VirtualDubMod build 2542/release
Видео
Идентификатор : 0
Формат : MPEG-4 Visual
Параметр BVOP формата : 1
Параметр QPel формата : Нет
Параметр GMC формата : Без точки перехода
Параметр матрицы формата : Default (H.263)
Режим смешивания : Сжатый битовый поток
Идентификатор кодека : DX50
Идентификатор кодека/Подсказка : DivX 5
Продолжительность : 42 м.
Битрейт : 1035 Кбит/сек
Ширина : 576 пикселей
Высота : 320 пикселей
Соотношение сторон : 16:9
Частота кадров : 23,976 кадра/сек
Цветовое пространство : YUV
Субдискретизация насыщенности : 4:2:0
Битовая глубина : 8 бит
Тип развёртки : Прогрессивная
Метод сжатия : С потерями
Бит/(Пиксели*Кадры) : 0.234
Размер потока : 312 Мбайт (91%)
Библиотека кодирования : DivX 5.0.5 (UTC 2003-04-24)
Аудио
Идентификатор : 1
Формат : MPEG Audio
Версия формата : Version 1
Профиль формата : Layer 3
Идентификатор кодека : 55
Идентификатор кодека/Подсказка : MP3
Продолжительность : 42 м.
Вид битрейта : Постоянный
Битрейт : 96,0 Кбит/сек
Каналы : 2 канала
Частота : 44,1 КГц
Метод сжатия : С потерями
Размер потока : 28,9 Мбайт (8%)
Выравнивание : Разделение по промежуткам
Продолжительность промежутка : 42 мс. (1,00 видеокадр)
Время предзагрузки промежутка : 500 мс.

_________________


Последний раз редактировалось: awk05 (2014-07-22 19:33), всего редактировалось 1 раз
[Торрент-статистика]
[Профиль]  [ЛС] 

arabella

Стаж: 2 года 10 месяцев

Сообщений: 13

Репутация: 33 [+] [-]

Пост 12-Фев-2014 19:58 (спустя 1 день 2 часа)

[Цитировать] 

как то всё интересно....
[Торрент-статистика]
[Профиль]  [ЛС] 
Показать сообщения:    
Ответить на тему

Текущее время: Сегодня 20:34

Часовой пояс: GMT + 4



Вы не можете начинать темы
Вы не можете отвечать на сообщения
Вы не можете редактировать свои сообщения
Вы не можете удалять свои сообщения
Вы не можете голосовать в опросах
Вы не можете прикреплять файлы к сообщениям
Вы не можете скачивать файлы