Обман / Deception / Сезон: 1 / Серии: 1-11 из 11 (Питер Хортон / Peter Horton, Дэн Лернер / Dan Lerner) [2013, Драма, WEB-DLRip 400p] DVO (Причудики) + Original + Eng Subs

Ответить на тему
 
Автор
Сообщение

awk05 ®

Пол:

Стаж: 4 года 5 месяцев

Сообщений: 1352

Репутация: 275 [+] [-]

Откуда: Западная Украина Ривне

Пост 11-Фев-2014 16:53

[Цитировать] 

--Обман / Deception-- Год выпуска: 2013
Страна: США
Жанр: Драма
Сезон/Серия: Сезон:1 /Серия 1-11 из 11
Продолжительность: 11 х ~00:42:00
Перевод: Любительский (двухголосый закадровый) (Причудики)
Субтитры: English | (Серии: 1-6)--Режиссёр: Питер Хортон / Peter Horton, Дэн Лернер / Dan Lerner--В ролях: Миган Гуд, Тейт Донован, Кэтрин ЛаНаса, Лас Алонсо, Марин Хинкль, Уэс Браун, Элла Рэй Пек, Виктор Гарбер, Стерлинг Джеринс--Описание: Молодую дочь Роберта Бауэрса, владельца крупной фармацевтической компании, находят мёртвой в номере мотеля. Обстоятельства, при которых она ушла из жизни, крайне подозрительны. Однако детектив Джоанна Локасто, которой поручили расследование, сомневается, что предварительная версия смерти – передозировка наркотиков - соответствует действительности. Она находит некоторые улики, указывающие на то, что девушка была убита. И скорей всего, к преступлению причастен кто-то из близких. Самое интересное, что Джоанна когда-то была знакома с убитой и даже считала её своей подругой. Находчивый детектив внедряется в окружение клана Бауэрсов, чтобы найти убийцу. Но семейные тайны, которые она откроет, будут покруче одного - пусть даже кровавого - преступления.--Качество: WEB-DLRip 400p
Формат: AVI
Видео кодек: XviD
Аудио кодек: AC3
Видео: 720x400 (1.80:1), 23.976 fps, XviD build 65 ~2 000 kbps avg, 0.29 bit/pixel
Аудио: 48 kHz, AC3 Dolby Digital, 2/0 ch, ~192.00 kbps avg | (Причудики)
Аудио: 48 kHz, AC3 Dolby Digital, 3/2 ch, ~384.00 kbps avg-- --Релиз: --

MediaInfo

Общее
Полное имя : E:\Сериалы новые\Обман (1 Cезон)\Deception.s01e01.web-dlrip.casstudio.tv.avi
Формат : AVI
Формат/Информация : Audio Video Interleave
Размер файла : 832 Мбайт
Продолжительность : 44 м.
Общий поток : 2590 Кбит/сек
Программа кодирования : VirtualDubMod 1.5.10.2 (build 2540/release)
Библиотека кодирования : VirtualDubMod build 2540/release
Видео
Идентификатор : 0
Формат : MPEG-4 Visual
Профиль формата : Advanced Simple@L5
Параметр BVOP формата : 1
Параметр QPel формата : Нет
Параметр GMC формата : Без точки перехода
Параметр матрицы формата : Default (MPEG)
Идентификатор кодека : XVID
Идентификатор кодека/Подсказка : XviD
Продолжительность : 44 м.
Битрейт : 2000 Кбит/сек
Ширина : 720 пикселей
Высота : 400 пикселей
Соотношение сторон : 16:9
Частота кадров : 23,976 кадра/сек
Цветовое пространство : YUV
Субдискретизация насыщенности : 4:2:0
Битовая глубина : 8 бит
Тип развёртки : Прогрессивная
Метод сжатия : С потерями
Бит/(Пиксели*Кадры) : 0.290
Размер потока : 643 Мбайт (77%)
Библиотека кодирования : XviD 65
Аудио #1
Идентификатор : 1
Формат : AC-3
Формат/Информация : Audio Coding 3
Расширение режима : CM (complete main)
Параметр Endianness формата : Big
Идентификатор кодека : 2000
Продолжительность : 44 м.
Вид битрейта : Постоянный
Битрейт : 192 Кбит/сек
Каналы : 2 канала
Расположение каналов : Front: L R
Частота : 48,0 КГц
Битовая глубина : 16 бит
Метод сжатия : С потерями
Размер потока : 61,7 Мбайт (7%)
Выравнивание : Разделение по промежуткам
Продолжительность промежутка : 42 мс. (1,00 видеокадр)
Время предзагрузки промежутка : 500 мс.
Аудио #2
Идентификатор : 2
Формат : AC-3
Формат/Информация : Audio Coding 3
Расширение режима : CM (complete main)
Параметр Endianness формата : Big
Идентификатор кодека : 2000
Продолжительность : 44 м.
Вид битрейта : Постоянный
Битрейт : 384 Кбит/сек
Каналы : 6 каналов
Расположение каналов : Front: L C R, Side: L R, LFE
Частота : 48,0 КГц
Битовая глубина : 16 бит
Метод сжатия : С потерями
Размер потока : 123 Мбайт (15%)
Выравнивание : Разделение по промежуткам
Продолжительность промежутка : 42 мс. (1,00 видеокадр)
Время предзагрузки промежутка : 500 мс.

Скриншоты

Внимание! Раздача ведётся путём добавления новых серий!

Внимание! Раздача ведётся путём добавления новых серий; при каждом добавлении создётся новый торрент. Чтобы начать докачку новой серии, пользователям необходимо сделать следующее: (1) остановить скачивание, (2) удалить старый торрент у себя из клиента (старые серии удалять не надо), (3) скачать новый торрент и запустить его у себя в клиенте вместо старого, при этом указать клиенту путь в старую папку куда и должно происходить скачивание новых серий.
Ваш клиент при этом должен произвести хеширование (проверку) старой папки (если не производит сам - помогите ему сделать это), и будет докачивать только те серии которых у вас ещё нет. Старые серии при этом не удаляются, а продолжают раздаваться!
Eсли вы уже удалили старые серии, то предотвратить повторную закачку старых серий можно, отжав галочку в соответсвующих местах при запуске нового торрента.

Список серий

01 - Pilot
02 - Nothing's Free, Little Girl
03 - A Drop of Blood and a Microscope
04 - One, Two, Three... One, Two, Three
05 - Why Wait
06 - Don't Be a Dummy
07 - Tell Me
08 - Stay with Me
09 - Good Luck with Your Death
10 - You're the Bad Guy
11 - I'll Start with the Hillbilly

_________________
[Торрент-статистика]
[Профиль]  [ЛС] 
Показать сообщения:    
Ответить на тему

Текущее время: Сегодня 08:38

Часовой пояс: GMT + 4



Вы не можете начинать темы
Вы не можете отвечать на сообщения
Вы не можете редактировать свои сообщения
Вы не можете удалять свои сообщения
Вы не можете голосовать в опросах
Вы не можете прикреплять файлы к сообщениям
Вы не можете скачивать файлы