Мария Верн / Maria Wern / Сезон: 2 / Серии: 1-7 из 7 (Эрик Лейжонборг / Erik Leijonborg) [2010-2012, детектив, триллер, DVDRip-AVC] MVO (Русский репортаж) + Original

Ответить на тему
 
Автор
Сообщение

awk05 ®

Пол:

Стаж: 4 года 5 месяцев

Сообщений: 1352

Репутация: 275 [+] [-]

Откуда: Западная Украина Ривне

Пост 11-Фев-2014 16:31

[Цитировать] 

--Мария Верн / Maria Wern-- Год выпуска: 2010-2012
Страна: Швеция
Жанр: триллер, криминал, детектив
Сезон/Серия: Сезон:2 /Серия 1-7 из 7
Продолжительность: 7 х ~ 01:25:00
Перевод: Профессиональный (многоголосый закадровый) /Русский репортаж/
Субтитры: отсутствуют--Режиссёр: Эрик Лейжонборг / Erik Leijonborg--В ролях: Эва Роуз (Maria Wern), Аллан Свенссон (Thomas Hartman), Peter Perski (Arvidsson), Таня Лорентцон (Erika), Ульф Фриберг (Ek), Оскар Петтерссон (Emil Wern), Фарес Фарес (Jonathan Sauma), Эллен Мэттссон (Jessica Wide), Мария Рихардсон (Victoria Hammar), Петер Шильдт (Reine Hammar)--Описание: В разгар праздника летнего солнцестояния мирный остров Готланд потрясают жуткие ритуальные убийства. Мария Верн вместе с коллегами вынуждена погрузиться в мрачный мир фантазий больного мозга. Подобные убийства уже происходили раньше, но сумасшедший убийца давно пойман! Значит, у него появился «ученик»? Счет времени идет на минуты: Марии надо найти убийцу, прежде чем он свершит еще одно чудовищное преступление.--Доп. информация: Весь сериал состоит из 4-х серий по 45 мин. и 9 серий по 90 мин. (у Русского репортажа куплены права на 4 серии по 45 мин и 7 серий по 90 мин)--Качество: DVDRip-AVC
Формат: MKV
Видео кодек: AVC (High@L4.1)
Аудио кодек: AC3
Видео: 716x572 (16:9), 25.000 кадра/сек, 2832 Кбит/сек, 0.277 Бит/(Пиксели*Кадры)
Аудио 1: 2 канала Front: L R, 48,0 КГц, 192 Кбит/сек, 16 бит[RUS]
Аудио 2: 6 каналов Front: L C R, Side: L R, LFE, 48,0 КГц, 448 Кбит/сек, 16 бит [SWE]-- --

MediaInfo

Общее
Уникальный идентификатор : 190037051553017865821352884245812673028 (0x8EF7CE0837E49E11A682056CBDD2FA04)
Полное имя : E:\Сериалы новые\Maria.Wern.(s02)\Maria.Wern.S02E01.Stum.Sitter.Guden.DVDRip-AVC.x264.Rus.Swe.mkv
Формат : Matroska
Версия формата : Version 4 / Version 2
Размер файла : 2,07 Гбайт
Продолжительность : 1 ч. 25 м.
Общий поток : 3473 Кбит/сек
Дата кодирования : UTC 2014-01-26 18:08:59
Программа кодирования : mkvmerge v6.0.0 ('Coming Up For Air') built on Jan 20 2013 09:52:00
Библиотека кодирования : libebml v1.3.0 + libmatroska v1.4.0
Видео
Идентификатор : 1
Формат : AVC
Формат/Информация : Advanced Video Codec
Профиль формата : High@L4.1
Параметр CABAC формата : Да
Параметр ReFrames формата : 16 кадров
Идентификатор кодека : V_MPEG4/ISO/AVC
Продолжительность : 1 ч. 25 м.
Битрейт : 2832 Кбит/сек
Ширина : 716 пикселей
Высота : 572 пикселя
Соотношение сторон : 16:9
Режим частоты кадров : Постоянный
Частота кадров : 25,000 кадров/сек
Цветовое пространство : YUV
Субдискретизация насыщенности : 4:2:0
Битовая глубина : 8 бит
Тип развёртки : Прогрессивная
Бит/(Пиксели*Кадры) : 0.277
Размер потока : 1,64 Гбайт (80%)
Заголовок : Maria Wern. Episode 01 "Stum Sitter Guden" SE
Библиотека кодирования : x264 core 140 r2377 1ca7bb9
Настройки программы : cabac=1 / ref=16 / deblock=1:-3:-3 / analyse=0x3:0x133 / me=umh / subme=10 / psy=1 / psy_rd=1.00:0.15 / mixed_ref=1 / me_range=32 / chroma_me=1 / trellis=2 / 8x8dct=1 / cqm=0 / deadzone=21,11 / fast_pskip=0 / chroma_qp_offset=-3 / threads=12 / lookahead_threads=1 / sliced_threads=0 / nr=0 / decimate=1 / interlaced=0 / bluray_compat=0 / constrained_intra=0 / bframes=6 / b_pyramid=2 / b_adapt=2 / b_bias=0 / direct=3 / weightb=1 / open_gop=0 / weightp=2 / keyint=250 / keyint_min=25 / scenecut=40 / intra_refresh=0 / rc_lookahead=60 / rc=2pass / mbtree=1 / bitrate=2832 / ratetol=1.0 / qcomp=0.60 / qpmin=10 / qpmax=51 / qpstep=4 / cplxblur=20.0 / qblur=0.5 / vbv_maxrate=62500 / vbv_bufsize=50000 / nal_hrd=none / filler=0 / ip_ratio=1.40 / aq=1:1.00
Язык : Swedish
Default : Да
Forced : Нет
Аудио #1
Идентификатор : 2
Формат : AC-3
Формат/Информация : Audio Coding 3
Расширение режима : CM (complete main)
Параметр Endianness формата : Big
Идентификатор кодека : A_AC3
Продолжительность : 1 ч. 25 м.
Вид битрейта : Постоянный
Битрейт : 192 Кбит/сек
Каналы : 2 канала
Расположение каналов : Front: L R
Частота : 48,0 КГц
Битовая глубина : 16 бит
Метод сжатия : С потерями
Размер потока : 117 Мбайт (6%)
Язык : Russian
Default : Да
Forced : Нет
Аудио #2
Идентификатор : 3
Формат : AC-3
Формат/Информация : Audio Coding 3
Расширение режима : CM (complete main)
Параметр Endianness формата : Big
Идентификатор кодека : A_AC3
Продолжительность : 1 ч. 25 м.
Вид битрейта : Постоянный
Битрейт : 448 Кбит/сек
Каналы : 6 каналов
Расположение каналов : Front: L C R, Side: L R, LFE
Частота : 48,0 КГц
Битовая глубина : 16 бит
Метод сжатия : С потерями
Задержка видео : 160 мс.
Размер потока : 273 Мбайт (13%)
Заголовок : AC3 5.1 @ 448 kbps
Язык : Swedish
Default : Нет
Forced : Нет
Меню
00:00:00.000 : en:Chapter 01
00:05:00.080 : en:Chapter 02
00:10:00.320 : en:Chapter 03
00:15:00.480 : en:Chapter 04
00:20:00.120 : en:Chapter 05
00:25:00.240 : en:Chapter 06
00:30:00.200 : en:Chapter 07
00:35:00.000 : en:Chapter 08
00:40:00.040 : en:Chapter 09
00:45:00.320 : en:Chapter 10
00:50:00.120 : en:Chapter 11
00:55:00.040 : en:Chapter 12
01:00:00.040 : en:Chapter 13
01:05:00.040 : en:Chapter 14
01:10:00.480 : en:Chapter 15
01:15:00.000 : en:Chapter 16
01:20:00.440 : en:Chapter 17
01:25:00.120 : en:Chapter 18

_________________
[Торрент-статистика]
[Профиль]  [ЛС] 
Показать сообщения:    
Ответить на тему

Текущее время: Сегодня 19:41

Часовой пояс: GMT + 4



Вы не можете начинать темы
Вы не можете отвечать на сообщения
Вы не можете редактировать свои сообщения
Вы не можете удалять свои сообщения
Вы не можете голосовать в опросах
Вы не можете прикреплять файлы к сообщениям
Вы не можете скачивать файлы