Мария Верн. Тайна Мёртвых Птиц / Maria Wern Frammande Fagel / Сезон: 1 / Серии: 1-4 из 4 (Эрик Лейжонборг / Erik Leijonborg) [2008, триллер, криминал, детектив, DVDRip-AVC] MVO (Русский репортаж) + Original

Ответить на тему
 
Автор
Сообщение

awk05 ®

Пол:

Стаж: 4 года 5 месяцев

Сообщений: 1352

Репутация: 275 [+] [-]

Откуда: Западная Украина Ривне

Пост 11-Фев-2014 16:04

[Цитировать] 

--Мария Верн. Тайна Мёртвых Птиц / Maria Wern Frammande Fagel-- Год выпуска: 2008
Страна: Швеция
Жанр: триллер, криминал, детектив
Сезон/Серия: Сезон:1 /Серия 1-4 из 4
Продолжительность: 4 х ~ 00:45:00
Перевод: Профессиональный (многоголосый закадровый) /Русский репортаж/
Субтитры: отсутствуют--Режиссёр: Эрик Лейжонборг / Erik Leijonborg--В ролях: Эва Роуз (Maria Wern), Аллан Свенссон (Thomas Hartman), Peter Perski (Arvidsson), Таня Лорентцон (Erika), Ульф Фриберг (Ek), Оскар Петтерссон (Emil Wern), Фарес Фарес (Jonathan Sauma), Эллен Мэттссон (Jessica Wide), Мария Рихардсон (Victoria Hammar), Петер Шильдт (Reine Hammar)--Описание: Мария Верн приезжает для расследования жестокого убийства на остров Готланд, где один за другим умирают люди от неизвестного заболевания. В ходе расследования Мария выясняет, что убитый и был тем человеком, по вине которого распространился смертельный вирус. За что его убили? И есть ли у убийц вакцина от болезни? Все силы полиции брошены на изоляцию островитян. Жители Готланда на грани бунта. Теперь все зависит от инспектора Верн.--Доп. информация: Весь сериал состоит из 4-х серий по 45 мин. и 9 серий по 90 мин. (у Русского репортажа куплены права на 4 серии по 45 мин и 7 серий по 90 мин)--Качество: DVDRip-AVC
Формат: MKV
Видео кодек: AVC (High@L4.1)
Аудио кодек: AC3
Видео: 716x572 (1,85:1), 25.000 кадра/сек, 2730 Кбит/сек, 0.267 Бит/(Пиксели*Кадры)
Аудио 1: 2 канала Front: L R, 48,0 КГц, 192 Кбит/сек, 16 бит[RUS]
Аудио 2: 6 каналов Front: L C R, Side: L R, LFE, 48,0 КГц, 448 Кбит/сек, 16 бит [SWE]-- --

MediaInfo

Общее
Уникальный идентификатор : 230288922666852305417960684174335926698 (0xAD40087FF51FB5A5BEEE83267325E1AA)
Полное имя : E:\Сериалы новые\Maria.Wern\Maria.Wern.Främmande.Fågel.E01.DVDRip-AVC.x264.Rus.Swe.mkv
Формат : Matroska
Версия формата : Version 4 / Version 2
Размер файла : 1,03 Гбайт
Продолжительность : 43 м.
Общий поток : 3370 Кбит/сек
Дата кодирования : UTC 2014-01-10 18:24:38
Программа кодирования : mkvmerge v6.0.0 ('Coming Up For Air') built on Jan 20 2013 09:52:00
Библиотека кодирования : libebml v1.3.0 + libmatroska v1.4.0
Видео
Идентификатор : 1
Формат : AVC
Формат/Информация : Advanced Video Codec
Профиль формата : High@L4.1
Параметр CABAC формата : Да
Параметр ReFrames формата : 16 кадров
Идентификатор кодека : V_MPEG4/ISO/AVC
Продолжительность : 43 м.
Битрейт : 2730 Кбит/сек
Ширина : 716 пикселей
Высота : 572 пикселя
Соотношение сторон : 1,85:1
Соотношение сторон в оригинале : 1,85:1
Режим частоты кадров : Постоянный
Частота кадров : 25,000 кадров/сек
Цветовое пространство : YUV
Субдискретизация насыщенности : 4:2:0
Битовая глубина : 8 бит
Тип развёртки : Прогрессивная
Бит/(Пиксели*Кадры) : 0.267
Размер потока : 837 Мбайт (79%)
Заголовок : Maria Wern Främmande Fågel Episode 01 SE
Библиотека кодирования : x264 core 140 r2377 1ca7bb9
Настройки программы : cabac=1 / ref=16 / deblock=1:-3:-3 / analyse=0x3:0x133 / me=umh / subme=10 / psy=1 / psy_rd=1.00:0.15 / mixed_ref=1 / me_range=32 / chroma_me=1 / trellis=2 / 8x8dct=1 / cqm=0 / deadzone=21,11 / fast_pskip=0 / chroma_qp_offset=-3 / threads=12 / lookahead_threads=1 / sliced_threads=0 / nr=0 / decimate=1 / interlaced=0 / bluray_compat=0 / constrained_intra=0 / bframes=6 / b_pyramid=2 / b_adapt=2 / b_bias=0 / direct=3 / weightb=1 / open_gop=0 / weightp=2 / keyint=250 / keyint_min=25 / scenecut=40 / intra_refresh=0 / rc_lookahead=60 / rc=2pass / mbtree=1 / bitrate=2730 / ratetol=1.0 / qcomp=0.60 / qpmin=10 / qpmax=51 / qpstep=4 / cplxblur=20.0 / qblur=0.5 / vbv_maxrate=62500 / vbv_bufsize=50000 / nal_hrd=none / filler=0 / ip_ratio=1.40 / aq=1:1.00
Язык : Swedish
Default : Да
Forced : Нет
Аудио #1
Идентификатор : 2
Формат : AC-3
Формат/Информация : Audio Coding 3
Расширение режима : CM (complete main)
Параметр Endianness формата : Big
Идентификатор кодека : A_AC3
Продолжительность : 43 м.
Вид битрейта : Постоянный
Битрейт : 192 Кбит/сек
Каналы : 2 канала
Расположение каналов : Front: L R
Частота : 48,0 КГц
Битовая глубина : 16 бит
Метод сжатия : С потерями
Размер потока : 60,3 Мбайт (6%)
Язык : Russian
Default : Да
Forced : Нет
Аудио #2
Идентификатор : 3
Формат : AC-3
Формат/Информация : Audio Coding 3
Расширение режима : CM (complete main)
Параметр Endianness формата : Big
Идентификатор кодека : A_AC3
Продолжительность : 43 м.
Вид битрейта : Постоянный
Битрейт : 448 Кбит/сек
Каналы : 6 каналов
Расположение каналов : Front: L C R, Side: L R, LFE
Частота : 48,0 КГц
Битовая глубина : 16 бит
Метод сжатия : С потерями
Размер потока : 141 Мбайт (13%)
Заголовок : AC3 5.1 @ 448 kbps
Язык : Swedish
Default : Нет
Forced : Нет
Меню
00:00:00.000 : en:Chapter 01
00:11:03.000 : en:Chapter 02
00:20:04.600 : en:Chapter 03
00:30:30.560 : en:Chapter 04

_________________
[Торрент-статистика]
[Профиль]  [ЛС] 
Показать сообщения:    
Ответить на тему

Текущее время: Сегодня 08:56

Часовой пояс: GMT + 4



Вы не можете начинать темы
Вы не можете отвечать на сообщения
Вы не можете редактировать свои сообщения
Вы не можете удалять свои сообщения
Вы не можете голосовать в опросах
Вы не можете прикреплять файлы к сообщениям
Вы не можете скачивать файлы