Новости / The Newsroom / Сезон 2 / Серии 1-9 из 9 (Алан Пол, Грег Моттола, Лесли Линка Глаттер) [2013 г., Драма, HDTVRip] MVO Amedia

Ответить на тему
 
Автор
Сообщение

awk05 ®

Пол:

Стаж: 4 года 5 месяцев

Сообщений: 1352

Репутация: 275 [+] [-]

Откуда: Западная Украина Ривне

Пост 10-Фев-2014 18:51

[Цитировать] 

--Новости (Отдел новостей) / The Newsroom«Мы будем следить за развитием событий»-- Год выпуска: 2013
Страна: HBO (США)
Жанр: Драма
Сезон/Серия: Сезон:2 /Серия 1-9 из 9
Продолжительность: 9 х ~ 00:52:00
Перевод: Многоголосое закадровое (Amedia)
Субтитры: отсутствуют--Режиссер: Алан Пол, Грег Моттола, Лесли Линка Глаттер--В ролях: Джефф Дэниелс (Will McAvoy), Эмили Мортимер (MacKenzie McHale), Джон Галлахер мл. (Jim Harper), Элисон Пилл (Maggie Jordan), Томас Садоски (Don Keefer), Дев Патель (Neal Sampat), Оливия Манн (Sloan Sabbith), Сэм Уотерстон (Charlie Skinner), Крис Чок (Gary Cooper), Джон Ф. Карпентер (Herb Wilson)--Описание: Главная звезда прайм-тайма, ведущий новостей Уилл Макэвой, узнает, что команда единомышленников, с которыми он бок о бок проработал не один год, тайком решает перейти от него к другому новостнику. С Уиллом остаются лишь трое самых преданных сотрудников и по-настоящему близких ему коллег. Однако бешеный режим дедлайна, требующий полной самоотдачи, накладывает свой отпечаток на характеры людей, делая их столь же изменчивыми, подвижными и непредсказуемыми, как и сами новости.--Качество: HDTVRip
Формат: AVI
Видео кодек: XviD
Аудио кодек: MP3
Видео: 720x400 (16:9), 23,976 кадра/сек, 1291 Кбит/сек, 0.187 Бит/(Пиксели*Кадры)
Аудио: 2 канала Front: L R, 48,0 КГц, 128 Кбит/сек, 16 бит [RUS]-- --

MediaInfo

Общее
Полное имя : G:\тест\The_Newsroom_season_2\The.Newsroom.S02E01.First.Thing.We.Do.Let's.Kill.All.the.Lawyers.XviD.720x400.mp3-CasStudio.avi
Формат : AVI
Формат/Информация : Audio Video Interleave
Размер файла : 573 Мбайт
Продолжительность : 53 м.
Общий поток : 1495 Кбит/сек
Программа кодирования : Lavf54.63.104
Видео
Идентификатор : 0
Формат : xvid
Идентификатор кодека : xvid
Продолжительность : 53 м.
Битрейт : 1291 Кбит/сек
Ширина : 720 пикселей
Высота : 400 пикселей
Соотношение сторон : 16:9
Частота кадров : 23,976 кадра/сек
Бит/(Пиксели*Кадры) : 0.187
Размер потока : 494 Мбайт (86%)
Аудио
Идентификатор : 1
Формат : MPEG Audio
Версия формата : Version 1
Профиль формата : Layer 3
Режим : Joint stereo
Расширение режима : MS Stereo
Идентификатор кодека : 55
Идентификатор кодека/Подсказка : MP3
Продолжительность : 53 м.
Вид битрейта : Постоянный
Битрейт : 192 Кбит/сек
Каналы : 2 канала
Частота : 48,0 КГц
Метод сжатия : С потерями
Размер потока : 73,5 Мбайт (13%)
Выравнивание : Соединение по промежуткам
Продолжительность промежутка : 24 мс. (0,58 видеокадр)

_________________
[Торрент-статистика]
[Профиль]  [ЛС] 
Показать сообщения:    
Ответить на тему

Текущее время: Сегодня 10:07

Часовой пояс: GMT + 4



Вы не можете начинать темы
Вы не можете отвечать на сообщения
Вы не можете редактировать свои сообщения
Вы не можете удалять свои сообщения
Вы не можете голосовать в опросах
Вы не можете прикреплять файлы к сообщениям
Вы не можете скачивать файлы