Теория Большого взрыва / The Big Bang Theory / Сезон: 7 / Серии: 1-13 (24) (Джеймс Берроуз, Марк Сендровски) [2013 г., комедия, WEB-DLRip] MVO (Renegade Team)

Ответить на тему
 
Автор
Сообщение

awk05 ®

Пол:

Стаж: 4 года 5 месяцев

Сообщений: 1352

Репутация: 275 [+] [-]

Откуда: Западная Украина Ривне

Пост 04-Фев-2014 20:18

[Цитировать] 

-- --Теория Большого взрыва / The Big Bang Theory -- Год выпуска: 2013
Страна: США | CBS
Жанр: комедия
Сезон/Серия: Сезон:7 / Серия 1-24 из 24
Продолжительность: 24 x ~ 00:22:00
Перевод: Любительский (многоголосый, закадровый) Renegade Team
Субтитры: русские, английские--Режиссёр: Марк Сендроуски, Питер Чакос, Энтони Джозеф Рич--В ролях: Джонни Галэки (Leonard Hofstadter), Джим Парсонс (Sheldon Cooper), Кейли Куоко (Penny), Саймон Хелберг (Howard Wolowitz), Кунал Нэйэр (Raj Koothrappali), Мелисса Рауш (Bernadette Rostenkowski), Майем Биалик (Amy Farrah Fowler), Кэрол Энн Сьюзи (Mrs. Wolowitz), Кевин Сасмэн (Stuart), Арти Манн (Priya Koothrappali)--Описание: Два блестящих физика, Леонард и Шелдон, «великие умы», которые понимают как «работает вселенная». Но их гениальность ничуть не помогает им общаться с людьми, особенно с женщинами. Всё начинает меняться, когда напротив них поселяется красавица Пенни.
Когда Леонард и Шелдон встречают Пенни, Леонард сразу же начинает интересоваться ею. Он видит в общении с Пенни огромную перспективу…, вплоть до любви, однако Шелдон понимает, что мечтам его друга не суждено сбыться.
Стоит также отметить пару странных друзей этих физиков: Говард Воловиц, который любит употреблять фразы на разных языках, включая русский и Раждеш Кутрапали, теряющий речи при виде женщин--Качество: WEB-DLRip
Формат: AVI
Видео кодек: XVID
Аудио кодек: MP3
Видео: 720 x 400 (16:9), 23,976 кадра/сек, ~1 472 Кбит/сек, 0.213 Бит/(Пиксели*Кадры)
Аудио: 2 канала Front: L R, 44,1 КГц, 160 Кбит/сек [RUS]-- --

Список серий

01. Дефицит Хофстедтера
02. Контроль обмана
03. В поисках сокровищ
04. Минимизация ковчега
05. Служебный роман
06. Романтический резонанс
07. Увольнение протона
08. Зуд в мозгу
09. Разделение Благодарения
10. Утерянное открытие
11. Извлечение купера
12. Ответвление сомнения
13. Рекалибровка рода занятий

MI

Общее
Полное имя : E:\Сериалы новые\The Big Bang Theory S07 [Renegade team] WEB-DLRip\The Big Bang Theory S07E01 [Renegade team].avi
Формат : AVI
Формат/Информация : Audio Video Interleave
Размер файла : 255 Мбайт
Продолжительность : 21 м.
Режим общего битрейта : Переменный
Общий поток : 1669 Кбит/сек
Программа кодирования : Lavf54.25.105
Видео
Идентификатор : 0
Формат : MPEG-4 Visual
Профиль формата : Simple@L3
Параметр BVOP формата : Нет
Параметр QPel формата : Нет
Параметр GMC формата : Без точки перехода
Параметр матрицы формата : Default (H.263)
Идентификатор кодека : XVID
Идентификатор кодека/Подсказка : XviD
Продолжительность : 21 м.
Битрейт : 1472 Кбит/сек
Ширина : 720 пикселей
Высота : 400 пикселей
Соотношение сторон : 16:9
Частота кадров : 23,976 кадра/сек
Цветовое пространство : YUV
Субдискретизация насыщенности : 4:2:0
Битовая глубина : 8 бит
Тип развёртки : Прогрессивная
Метод сжатия : С потерями
Бит/(Пиксели*Кадры) : 0.213
Размер потока : 225 Мбайт (88%)
Библиотека кодирования : XviD 64
Аудио
Идентификатор : 1
Формат : MPEG Audio
Версия формата : Version 1
Профиль формата : Layer 3
Идентификатор кодека : 55
Идентификатор кодека/Подсказка : MP3
Продолжительность : 21 м.
Вид битрейта : Переменный
Битрейт : 160 Кбит/сек
Каналы : 2 канала
Частота : 44,1 КГц
Метод сжатия : С потерями
Размер потока : 28,3 Мбайт (11%)
Выравнивание : Соединение по промежуткам
Продолжительность промежутка : 26 мс. (0,63 видеокадр)

Раздача ведется путем добавления новых серий

Когда раздача ведётся путём добавления новых серий, при каждом добавлении создётся новый торрент. Чтобы начать докачку новой серии, пользователям необходимо сделать следующее:
(1) остановить скачивание,
(2) удалить старый торрент у себя из клиента (старые серии удалять не надо),
(3) скачать новый торрент и запустить его у себя в клиенте вместо старого, при этом указать клиенту путь в старую папку, куда и должно происходить скачивание новых серий.
Ваш клиент при этом должен произвести хеширование (проверку) старой папки (если не производит сам - помогите ему сделать это), и будет докачивать только те серии, которых у вас ещё нет. Старые серии при этом не удаляются, а продолжают раздаваться!
Eсли вы уже удалили старые серии, то предотвратить повторную закачку старых серий можно, отжав галочку в соответсвующих местах при запуске нового торрента. По возможности, желательно не удалять старые серии как можно дольше, чтобы релизёр не столько продолжал раздавать старые серии, а смог сконцентрироваться на новых.

_________________
[Торрент-статистика]
[Профиль]  [ЛС] 
Показать сообщения:    
Ответить на тему

Текущее время: Сегодня 22:19

Часовой пояс: GMT + 4



Вы не можете начинать темы
Вы не можете отвечать на сообщения
Вы не можете редактировать свои сообщения
Вы не можете удалять свои сообщения
Вы не можете голосовать в опросах
Вы не можете прикреплять файлы к сообщениям
Вы не можете скачивать файлы