Теория Большого взрыва / The Big Bang Theory / Сезон: 3 / Серии: 1-23 (23) (Джеймс Берроуз, Марк Сендровски) [2009-2010 г., комедия, BDRip] MVO СТС/Новамедиа + Original + rus sub

Ответить на тему
 
Автор
Сообщение

awk05 ®

Пол:

Стаж: 4 года 5 месяцев

Сообщений: 1352

Репутация: 275 [+] [-]

Откуда: Западная Украина Ривне

Пост 04-Фев-2014 18:36

[Цитировать] 

-- --Теория Большого взрыва / The Big Bang Theory -- Год выпуска: 2009-2010
Страна: США
Жанр: комедия
Сезон/Серия: Сезон:3 /Серия 1-23 из 23
Продолжительность: 23 x ~ 00:22:00
Перевод: Профессиональный многоголосный закадровый -
Субтитры: русские, английские--Режиссёр: Марк Сендроуски, Питер Чакос, Энтони Джозеф Рич--В ролях: Джонни Галэки (Leonard Hofstadter), Джим Парсонс (Sheldon Cooper), Кейли Куоко (Penny), Саймон Хелберг (Howard Wolowitz), Кунал Нэйэр (Raj Koothrappali), Мелисса Рауш (Bernadette Rostenkowski), Майем Биалик (Amy Farrah Fowler), Кэрол Энн Сьюзи (Mrs. Wolowitz), Кевин Сасмэн (Stuart), Арти Манн (Priya Koothrappali)--Описание: Два блестящих физика, Леонард и Шелдон, «великие умы», которые понимают как «работает вселенная». Но их гениальность ничуть не помогает им общаться с людьми, особенно с женщинами. Всё начинает меняться, когда напротив них поселяется красавица Пенни.
Когда Леонард и Шелдон встречают Пенни, Леонард сразу же начинает интересоваться ею. Он видит в общении с Пенни огромную перспективу…, вплоть до любви, однако Шелдон понимает, что мечтам его друга не суждено сбыться.
Стоит также отметить пару странных друзей этих физиков: Говард Воловиц, который любит употреблять фразы на разных языках, включая русский и Раждеш Кутрапали, теряющий речи при виде женщин--Качество: BDRip
Формат: MKV
Видео кодек: AVC (High@L3.0)
Аудио кодек: AC3
Видео: 720 Х 400 (16:9), 23,976 кадра/сек, 1370 Кбит/сек, 0.198 Бит/(Пиксели*Кадры)
Аудио 1: 2 канала Front: L R, 48,0 КГц, 192 Кбит/сек, 16 бит [RUS]
Аудио 2: 6 каналов Front: L C R, Side: L R, LFE, 48,0 КГц, 448 Кбит/сек, 16 бит [ENG]-- --

MI

General
Unique ID : 185121626966317554224235857789694399683 (0x8B4520E3981BA40CB92743FD86FE54C3)
Complete name : N:\Сериалы\Теория большого взрыва\The Big Bang Theory 1-3s CTC\03\0311 - The Maternal Congruence.mkv
Format : Matroska
File size : 282 MiB
Duration : 19mn 50s
Overall bit rate : 1 986 Kbps
Movie name : Релиз - D2T/"Криволапый ювелир"
Encoded date : UTC 2011-11-06 20:48:14
Writing application : mkvmerge v4.0.0 ('The Stars were mine') сборка от Jun 6 2010 16:18:42
Writing library : libebml v1.0.0 + libmatroska v1.0.0
Video
ID : 1
Format : AVC
Format/Info : Advanced Video Codec
Format profile : High@L3.0
Format settings, CABAC : Yes
Format settings, ReFrames : 4 frames
Codec ID : V_MPEG4/ISO/AVC
Duration : 19mn 50s
Bit rate : 1 370 Kbps
Width : 720 pixels
Height : 400 pixels
Display aspect ratio : 16:9
Frame rate : 23.976 fps
Color space : YUV
Chroma subsampling : 4:2:0
Bit depth : 8 bits
Scan type : Progressive
Bits/(Pixel*Frame) : 0.198
Stream size : 195 MiB (69%)
Writing library : x264 core 116 r2074 2641b9e
Encoding settings : cabac=1 / ref=4 / deblock=1:0:0 / analyse=0x3:0x112 / me=tesa / subme=9 / psy=1 / psy_rd=1.00:0.00 / mixed_ref=1 / me_range=16 / chroma_me=1 / trellis=2 / 8x8dct=1 / cqm=0 / deadzone=21,11 / fast_pskip=1 / chroma_qp_offset=-2 / threads=6 / sliced_threads=0 / nr=0 / decimate=1 / interlaced=0 / bluray_compat=0 / constrained_intra=0 / bframes=4 / b_pyramid=2 / b_adapt=2 / b_bias=0 / direct=3 / weightb=0 / open_gop=0 / weightp=2 / keyint=150 / keyint_min=1 / scenecut=33 / intra_refresh=0 / rc=cqp / mbtree=0 / qp=18 / ip_ratio=1.40 / pb_ratio=1.30 / aq=0
Language : English
Audio #1
ID : 2
Format : AC-3
Format/Info : Audio Coding 3
Mode extension : CM (complete main)
Codec ID : A_AC3
Duration : 19mn 50s
Bit rate mode : Constant
Bit rate : 192 Kbps
Channel(s) : 2 channels
Channel positions : Front: L R
Sampling rate : 48.0 KHz
Bit depth : 16 bits
Compression mode : Lossy
Stream size : 27.3 MiB (10%)
Title : СТС / НоваМедиа
Language : Russian
Audio #2
ID : 3
Format : AC-3
Format/Info : Audio Coding 3
Mode extension : CM (complete main)
Codec ID : A_AC3
Duration : 19mn 50s
Bit rate mode : Constant
Bit rate : 384 Kbps
Channel(s) : 6 channels
Channel positions : Front: L C R, Side: L R, LFE
Sampling rate : 48.0 KHz
Bit depth : 16 bits
Compression mode : Lossy
Stream size : 54.5 MiB (19%)
Language : English
Text #1
ID : 4
Format : UTF-8
Codec ID : S_TEXT/UTF8
Codec ID/Info : UTF-8 Plain Text
Language : Russian
Text #2
ID : 5
Format : UTF-8
Codec ID : S_TEXT/UTF8
Codec ID/Info : UTF-8 Plain Text
Language : English

Скриншоты



_________________
[Торрент-статистика]
[Профиль]  [ЛС] 
Показать сообщения:    
Ответить на тему

Текущее время: Сегодня 06:24

Часовой пояс: GMT + 4



Вы не можете начинать темы
Вы не можете отвечать на сообщения
Вы не можете редактировать свои сообщения
Вы не можете удалять свои сообщения
Вы не можете голосовать в опросах
Вы не можете прикреплять файлы к сообщениям
Вы не можете скачивать файлы