Великолепный век / Muhtesem Yüzyil / Сезон 4 / Серии 1-46 из ?? (Дурул Тайлан / Durul Taylan, Ягмур Тайлан / Yagmur Taylan) [2013-2014 г., драма, мелодрама, военный, биография, история, WEBDLRip] [ТК Домашний]

Ответить на тему
 
Автор
Сообщение

3232fox ®

Пол:

Стаж: 3 года 9 месяцев

Сообщений: 614

Репутация: 423 [+] [-]

Откуда: Крым,Россия

Пост 29-Янв-2014 21:39

[Цитировать] 

-Великолепный век / Muhtesem Yüzyil--Год выпуска: 2013-2014
Страна: Турция
Жанр: драма, мелодрама, военный, биография, история
Продолжительность: ?? х ~01:40:00
Сезон/Серия: Сезон: 4 / Серии 1-46 из ??
серии:по сериалу 110-144
Перевод: Профессиональный (полное дублирование)[ТК Домашний]--Режиссер: Дурул Тайлан / Durul Taylan, Ягмур Тайлан / Yagmur Taylan--В ролях: Халит Эргенч, Мерьем Узерли, Небахат Чехре, Окан Ялыбык, Нур Айсан, Сельма Эргеч, Филиз Ахмет, Мехмет Гунсур, Пелин Карахан, Вахиде Гердюм, Тансел Онгел, Селим Байрактар, Фатих Аль, Селен Озтурк, Бурак Озчивит, Дениз Чакыр, Ариф Эркин, Сабина Айрула, Озан Гювен--Описание: Сериал повествует о правлении султана Сулеймана Великолепного и его страстной любви к украинской красавице Роксалане. Согласно канонам исламской веры, султан мог иметь четырех законных жен и столько наложниц, сколько сможет содержать. При этом, дети первой жены становились преемниками престола. Роксолана еще девочкой была захвачена в плен и переправлена в Стамбул, где визирь Ибрагим-паша подарил ее султану. Путем интриг, подкупа и умелого обольщения украинская красавица стала женой султана. После принятия ислама она получила имя Хюррем. Сулейман возвел Роксолану в ранг главной жены, и называл ее не иначе как «милой сердцу». Роксолана была не только искусной любовницей, но и умной, интересной собеседницей, хорошо разбирающейся в искусстве и государственных делах. Чтобы реализовать свои амбиции в султанате, Хюррем устраняла всех, кто мог ей в этом помешать. В основу сценария легло несколько исторических романов и средневековых документов.-- --Тип релиза: WEBDLRip.серии [19-29...37-41 WEBRip.avi]
Контейнер: AVI
Видео кодек: XviD
Аудио кодек: MP3 (MPEG1 Layer 3)
Видео: 720x400 (16:9), 25.000 fps, ~1000 Kbps (0.140 bit/pixel)
Аудио: MPEG Audio,44.1 KHz, 2 ch, 192 Kbps, CBR--

Скриншоты

MI

General
Complete name : /Великолепный век (сезон 4)/Velikolepnyj.vek(4.sezon.1.serija).WEBDLRip.avi
Format : AVI
Format/Info : Audio Video Interleave
File size : 797 MiB
Duration : 1h 30mn
Overall bit rate : 1 227 Kbps
Writing application : Lavf54.63.104
Video
ID : 0
Format : xvid
Codec ID : xvid
Duration : 1h 30mn
Bit rate : 1 023 Kbps
Width : 720 pixels
Height : 400 pixels
Display aspect ratio : 16:9
Frame rate : 25.000 fps
Bits/(Pixel*Frame) : 0.142
Stream size : 664 MiB (83%)
Audio
ID : 1
Format : MPEG Audio
Format version : Version 1
Format profile : Layer 3
Mode : Joint stereo
Mode extension : MS Stereo
Codec ID : 55
Codec ID/Hint : MP3
Duration : 1h 30mn
Bit rate mode : Constant
Bit rate : 192 Kbps
Channel(s) : 2 channels
Sampling rate : 44.1 KHz
Compression mode : Lossy
Stream size : 125 MiB (16%)
Alignment : Aligned on interleaves
Interleave, duration : 26 ms (0.65 video frame)
Writing library : LAME3.99.5


Последний раз редактировалось: 3232fox (2016-01-24 03:53), всего редактировалось 15 раз(а)
[Торрент-статистика]
[Профиль]  [ЛС] 

3232fox ®

Пол:

Стаж: 3 года 9 месяцев

Сообщений: 614

Репутация: 423 [+] [-]

Откуда: Крым,Россия

Пост 29-Янв-2014 21:46 (спустя 7 минут)

[Цитировать] 

Женщины восторге,мужчины в шоке от сериала ca
[Торрент-статистика]
[Профиль]  [ЛС] 

NeliyZar

Пол:

Стаж: 5 лет 1 месяц

Сообщений: 3378

Репутация: 687 [+] [-]

Откуда: Донбасс

Пост 29-Янв-2014 22:11 (спустя 24 минуты)

[Цитировать] 

3232fox, а это какой сезон? А то я чего то потерялась. Третий еще?

_________________
Спорить с женщиной не так тяжело, когда понимаешь, что это бесполезно... (Михаил Мамчич)
Исправили раздачу? Отпишитесь модератору в ЛС с ссылкой на релиз.
[Торрент-статистика]
[Профиль]  [ЛС] 

3232fox ®

Пол:

Стаж: 3 года 9 месяцев

Сообщений: 614

Репутация: 423 [+] [-]

Откуда: Крым,Россия

Пост 30-Янв-2014 00:38 (спустя 2 часа 26 минут)

[Цитировать] 

425463232fox, а это какой сезон? А то я чего то потерялась. Третий еще?
Четвёртый
[Торрент-статистика]
[Профиль]  [ЛС] 

3232fox ®

Пол:

Стаж: 3 года 9 месяцев

Сообщений: 614

Репутация: 423 [+] [-]

Откуда: Крым,Россия

Пост 31-Мар-2014 22:16 (спустя 2 месяца 1 день)

[Цитировать] 

Добавлена 46 серия
[Торрент-статистика]
[Профиль]  [ЛС] 
Показать сообщения:    
Ответить на тему

Текущее время: Сегодня 20:38

Часовой пояс: GMT + 4



Вы не можете начинать темы
Вы не можете отвечать на сообщения
Вы не можете редактировать свои сообщения
Вы не можете удалять свои сообщения
Вы не можете голосовать в опросах
Вы не можете прикреплять файлы к сообщениям
Вы не можете скачивать файлы