Великолепный век / Muhtesem Yüzyil / Сезон 3 / серии 43 из 43 (Дурул Тайлан / Durul Taylan, Ягмур Тайлан / Yagmur Taylan) [2012-2013 г., драма, мелодрама, военный, биография, история, WEB-DLRip][ТК Домашний]

Ответить на тему
 
Автор
Сообщение

3232fox ®

Пол:

Стаж: 3 года 9 месяцев

Сообщений: 614

Репутация: 423 [+] [-]

Откуда: Крым,Россия

Пост 29-Янв-2014 16:04

[Цитировать] 

-Великолепный век / Muhtesem Yüzyil--Год выпуска: 2012-2013
Страна: Турция
Жанр: драма, мелодрама, военный, биография, история
Продолжительность:43х ~01:40:00
серии:по сериалу 64-109 серия
сезон:3,серии 43 из 43
Перевод: Профессиональный (полное дублирование)[ТК Домашний]--Режиссер: Дурул Тайлан / Durul Taylan, Ягмур Тайлан / Yagmur Taylan--В ролях: Халит Эргенч, Мерьем Узерли, Небахат Чехре, Окан Ялыбык, Нур Айсан, Сельма Эргеч, Филиз Ахмет, Мехмет Гунсур, Пелин Карахан, Вахиде Гердюм, Тансел Онгел, Селим Байрактар, Фатих Аль, Селен Озтурк, Бурак Озчивит, Дениз Чакыр, Ариф Эркин, Сабина Айрула, Озан Гювен--Описание: Сериал повествует о правлении султана Сулеймана Великолепного и его страстной любви к украинской красавице Роксалане. Согласно канонам исламской веры, султан мог иметь четырех законных жен и столько наложниц, сколько сможет содержать. При этом, дети первой жены становились преемниками престола. Роксолана еще девочкой была захвачена в плен и переправлена в Стамбул, где визирь Ибрагим-паша подарил ее султану. Путем интриг, подкупа и умелого обольщения украинская красавица стала женой султана. После принятия ислама она получила имя Хюррем. Сулейман возвел Роксолану в ранг главной жены, и называл ее не иначе как «милой сердцу». Роксолана была не только искусной любовницей, но и умной, интересной собеседницей, хорошо разбирающейся в искусстве и государственных делах. Чтобы реализовать свои амбиции в султанате, Хюррем устраняла всех, кто мог ей в этом помешать. В основу сценария легло несколько исторических романов и средневековых документов.-- --Тип релиза: WEBDLRip
Контейнер: AVI
Видео кодек: XviD
Аудио кодек: MP3 (MPEG1 Layer 3)
Видео: 720x400 (16:9), 25.000 fps, 1 045 Kbps (0.145 bit/pixel)
Аудио: MPEG Audio, 44.1 KHz, 2 ch, 128 Kbps, CBR--

Скриншоты

MI

General
Complete name : /media/MuhtesemYuzyil.S03/Muhtesem Yuzyil.s03e64.avi
Format : AVI
Format/Info : Audio Video Interleave
File size : 773 MiB
Duration : 1h 31mn
Overall bit rate : 1 185 Kbps
Writing application : MEncoder SVN-r33883(20110719-gcc4.5.2)
Writing library : MPlayer
Video
ID : 0
Format : MPEG-4 Visual
Format profile : Advanced Simple@L5
Format settings, BVOP : 2
Format settings, QPel : No
Format settings, GMC : No warppoints
Format settings, Matrix : Default (H.263)
Codec ID : XVID
Codec ID/Hint : XviD
Duration : 1h 31mn
Bit rate : 1 045 Kbps
Width : 720 pixels
Height : 400 pixels
Display aspect ratio : 16:9
Original display aspect ratio : 16:9
Frame rate : 25.000 fps
Color space : YUV
Chroma subsampling : 4:2:0
Bit depth : 8 bits
Scan type : Progressive
Compression mode : Lossy
Bits/(Pixel*Frame) : 0.145
Stream size : 682 MiB (88%)
Writing library : XviD 1.2.1 (UTC 2008-12-04)
Audio
ID : 1
Format : MPEG Audio
Format version : Version 1
Format profile : Layer 3
Mode : Joint stereo
Mode extension : MS Stereo
Codec ID : 55
Codec ID/Hint : MP3
Duration : 1h 31mn
Bit rate mode : Constant
Bit rate : 128 Kbps
Channel(s) : 2 channels
Sampling rate : 44.1 KHz
Compression mode : Lossy
Delay relative to video : 40ms
Stream size : 83.5 MiB (11%)
Alignment : Aligned on interleaves
Interleave, duration : 26 ms (0.65 video frame)
Interleave, preload duration : 522 ms
Writing library : LAME3.98.4


Последний раз редактировалось: 3232fox (2014-01-30 00:43), всего редактировалось 1 раз
[Торрент-статистика]
[Профиль]  [ЛС] 
Показать сообщения:    
Ответить на тему

Текущее время: Сегодня 09:00

Часовой пояс: GMT + 4



Вы не можете начинать темы
Вы не можете отвечать на сообщения
Вы не можете редактировать свои сообщения
Вы не можете удалять свои сообщения
Вы не можете голосовать в опросах
Вы не можете прикреплять файлы к сообщениям
Вы не можете скачивать файлы