Великолепный век / Muhtesem Yüzyil / Сезон 2 / серии1-39 из 39 (Дурул Тайлан / Durul Taylan, Ягмур Тайлан / Yagmur Taylan) [2011 г., драма, мелодрама, военный, биография, история, WEB-DLRip] [ТК Домашний]

Ответить на тему
 
Автор
Сообщение

3232fox ®

Пол:

Стаж: 3 года 8 месяцев

Сообщений: 614

Репутация: 423 [+] [-]

Откуда: Крым,Россия

Пост 29-Янв-2014 03:09

[Цитировать] 

-Великолепный век / Muhtesem Yüzyil--Год выпуска: 2011
Страна: Турция
Жанр: драма, мелодрама, военный, биография, история
Продолжительность: ~01:40:00
Сезон:2,серии 39 из 39
серии:25-63 по сериалу
Перевод: Профессиональный (полное дублирование) [ТК Домашний]--Режиссер: Дурул Тайлан / Durul Taylan, Ягмур Тайлан / Yagmur Taylan--В ролях: Халит Эргенч, Мерьем Узерли, Небахат Чехре, Окан Ялыбык, Нур Айсан, Сельма Эргеч, Филиз Ахмет, Мехмет Гунсур, Пелин Карахан, Вахиде Гердюм, Тансел Онгел, Селим Байрактар, Фатих Аль, Селен Озтурк, Бурак Озчивит, Дениз Чакыр, Ариф Эркин, Сабина Айрула, Озан Гювен--Описание: Сериал повествует о правлении султана Сулеймана Великолепного и его страстной любви к украинской красавице Роксалане. Согласно канонам исламской веры, султан мог иметь четырех законных жен и столько наложниц, сколько сможет содержать. При этом, дети первой жены становились преемниками престола. Роксолана еще девочкой была захвачена в плен и переправлена в Стамбул, где визирь Ибрагим-паша подарил ее султану. Путем интриг, подкупа и умелого обольщения украинская красавица стала женой султана. После принятия ислама она получила имя Хюррем. Сулейман возвел Роксолану в ранг главной жены, и называл ее не иначе как «милой сердцу». Роксолана была не только искусной любовницей, но и умной, интересной собеседницей, хорошо разбирающейся в искусстве и государственных делах. Чтобы реализовать свои амбиции в султанате, Хюррем устраняла всех, кто мог ей в этом помешать. В основу сценария легло несколько исторических романов и средневековых документов.-- --Тип релиза: WEBDLRip
Контейнер: AVI
Видео кодек: XviD
Аудио кодек: MP3 (MPEG1 Layer 3)
Видео: 704x396 (16:9), 25.000 fps, ~1200 Kbps (0.170 bit/pixel)
Аудио: MPEG Audio,44.1 KHz, 2 ch, 128 Kbps--

Скриншоты

MI

General
Complete name : /media/MuhtesemYuzyil.S02E25-63/Muhtesem Yuzyil.s02e25.avi
Format : AVI
Format/Info : Audio Video Interleave
File size : 987 MiB
Duration : 1h 44mn
Overall bit rate : 1 322 Kbps
Writing application : MEncoder SVN-r30881(20100311-gcc4.3.3)
Writing library : MPlayer
Video
ID : 0
Format : MPEG-4 Visual
Format profile : Advanced Simple@L5
Format settings, BVOP : 2
Format settings, QPel : No
Format settings, GMC : No warppoints
Format settings, Matrix : Default (H.263)
Codec ID : XVID
Codec ID/Hint : XviD
Duration : 1h 44mn
Bit rate : 1 182 Kbps
Width : 704 pixels
Height : 396 pixels
Display aspect ratio : 16:9
Frame rate : 25.000 fps
Color space : YUV
Chroma subsampling : 4:2:0
Bit depth : 8 bits
Scan type : Progressive
Compression mode : Lossy
Bits/(Pixel*Frame) : 0.170
Stream size : 882 MiB (89%)
Writing library : XviD 1.2.1 (UTC 2008-12-04)
Audio
ID : 1
Format : MPEG Audio
Format version : Version 1
Format profile : Layer 3
Mode : Joint stereo
Mode extension : MS Stereo
Codec ID : 55
Codec ID/Hint : MP3
Duration : 1h 44mn
Bit rate mode : Constant
Bit rate : 128 Kbps
Channel(s) : 2 channels
Sampling rate : 44.1 KHz
Compression mode : Lossy
Delay relative to video : 40ms
Stream size : 95.6 MiB (10%)
Alignment : Aligned on interleaves
Interleave, duration : 26 ms (0.65 video frame)
Interleave, preload duration : 522 ms
[Торрент-статистика]
[Профиль]  [ЛС] 
Показать сообщения:    
Ответить на тему

Текущее время: Сегодня 08:41

Часовой пояс: GMT + 4



Вы не можете начинать темы
Вы не можете отвечать на сообщения
Вы не можете редактировать свои сообщения
Вы не можете удалять свои сообщения
Вы не можете голосовать в опросах
Вы не можете прикреплять файлы к сообщениям
Вы не можете скачивать файлы