Великолепный век / Muhtesem Yüzyil / Сезон 1 / серии 1-24 из 24 (Дурул Тайлан / Durul Taylan, Ягмур Тайлан / Yagmur Taylan) [2011 г., драма, мелодрама, военный, биография, история, SATRip] [ТК Домашний, NewStudio]

Ответить на тему
 
Автор
Сообщение

3232fox ®

Пол:

Стаж: 3 года 8 месяцев

Сообщений: 614

Репутация: 423 [+] [-]

Откуда: Крым,Россия

Пост 29-Янв-2014 02:38

[Цитировать] 

Великолепный век / Muhtesem Yüzyil--Год выпуска: 2011
Страна: Турция
Жанр: драма, мелодрама, военный, биография, история
Продолжительность:24 ~01:40:00
Сезон:1,серии 24 из 24
Перевод: Профессиональный (полное дублирование)[ТК Домашний,NewStudio]--Режиссер: Дурул Тайлан / Durul Taylan, Ягмур Тайлан / Yagmur Taylan--В ролях: Халит Эргенч, Мерьем Узерли, Небахат Чехре, Окан Ялыбык, Нур Айсан, Сельма Эргеч, Филиз Ахмет, Мехмет Гунсур, Пелин Карахан, Вахиде Гердюм, Тансел Онгел, Селим Байрактар, Фатих Аль, Селен Озтурк, Бурак Озчивит, Дениз Чакыр, Ариф Эркин, Сабина Айрула, Озан Гювен--Описание: Сериал повествует о правлении султана Сулеймана Великолепного и его страстной любви к украинской красавице Роксалане. Согласно канонам исламской веры, султан мог иметь четырех законных жен и столько наложниц, сколько сможет содержать. При этом, дети первой жены становились преемниками престола. Роксолана еще девочкой была захвачена в плен и переправлена в Стамбул, где визирь Ибрагим-паша подарил ее султану. Путем интриг, подкупа и умелого обольщения украинская красавица стала женой султана. После принятия ислама она получила имя Хюррем. Сулейман возвел Роксолану в ранг главной жены, и называл ее не иначе как «милой сердцу». Роксолана была не только искусной любовницей, но и умной, интересной собеседницей, хорошо разбирающейся в искусстве и государственных делах. Чтобы реализовать свои амбиции в султанате, Хюррем устраняла всех, кто мог ей в этом помешать. В основу сценария легло несколько исторических романов и средневековых документов.-- --Тип релиза: SATRip
Контейнер: AVI
Видео кодек: XviD
Аудио кодек: MP3 (MPEG1 Layer 3)
Видео: 704x400 (16:9), 25.000 fps, ~1300 kbps, ~0.180 bit/pixel
Аудио: MPEG Audio,48 kHz, 2 ch, ~128 kbps--

Скриншоты

MI

General
Complete name : G:\видео\Muhtesem.Yuzyil.s01.NewStudio\Muhtesem.Yuzyil.s01e08.SATRip.NewStudio.TV.avi
Format : AVI
Format/Info : Audio Video Interleave
File size : 998 MiB
Duration : 1h 40mn
Overall bit rate : 1 384 Kbps
Writing application : VirtualDubMod 1.5.10.2 (build 2540/release)
Writing library : VirtualDubMod build 2540/release
Video
ID : 0
Format : MPEG-4 Visual
Format profile : Advanced Simple@L5
Format settings, BVOP : Yes
Format settings, QPel : No
Format settings, GMC : No warppoints
Format settings, Matrix : Default (MPEG)
Codec ID : XVID
Codec ID/Hint : XviD
Duration : 51mn 57s
Bit rate : 63.5 Mbps
Width : 704 pixels
Height : 400 pixels
Display aspect ratio : 16:9
Frame rate : 25.000 fps
Color space : YUV
Chroma subsampling : 4:2:0
Bit depth : 8 bits
Scan type : Progressive
Compression mode : Lossy
Bits/(Pixel*Frame) : 9.019
Stream size : 23.0 GiB
Writing library : XviD 64
Audio
ID : 1
Format : MPEG Audio
Format version : Version 1
Format profile : Layer 3
Mode : Joint stereo
Codec ID : 55
Codec ID/Hint : MP3
Duration : 1h 40mn
Bit rate mode : Constant
Bit rate : 128 Kbps
Channel(s) : 2 channels
Sampling rate : 48.0 KHz
Compression mode : Lossy
Stream size : 71.9 GiB
Alignment : Aligned on interleaves
Interleave, duration : 40 ms (1.00 video frame)
Interleave, preload duration : 504 ms
[Торрент-статистика]
[Профиль]  [ЛС] 
Показать сообщения:    
Ответить на тему

Текущее время: Сегодня 08:36

Часовой пояс: GMT + 4



Вы не можете начинать темы
Вы не можете отвечать на сообщения
Вы не можете редактировать свои сообщения
Вы не можете удалять свои сообщения
Вы не можете голосовать в опросах
Вы не можете прикреплять файлы к сообщениям
Вы не можете скачивать файлы