Падший / Fallen / Фильм + Минисериал Серии: 1-4 (4) (Микаэл Саломон) [2006-2007 г., фантастика, боевик, фэнтези, драма, приключения, DVDRip] (1001cinema)

Ответить на тему
 
Автор
Сообщение

awk05 ®

Пол:

Стаж: 4 года 5 месяцев

Сообщений: 1352

Репутация: 275 [+] [-]

Откуда: Западная Украина Ривне

Пост 23-Янв-2014 06:05

[Цитировать] 

--Падший / Fallen-- Год выпуска: 2006-2007
Страна: США
Жанр: фантастика, боевик, фэнтези, драма, приключения
Продолжительность: 1 x ~ 01:20:00, 4 x ~ 01:22:00
Перевод: Профессиональный (двухголосый закадровый) НТВ+
Русские субтитры: нет--
Режиссёр: Кевин Керслэйк--
В ролях: Пол Уэсли(Aaron Corbett), Рик Уорси(Camael), Хэл Озсэн(Azazel), Фернанда Андраде(Vilma Rodriguez), Ивана Миличевич(Ariel), Брайан Крэнстон(Lucifer), Уилл Юн Ли(Mazarin), Раде Шербеджия(Dr. Lukas Grasic), Моник Гэндертон(Sachael, Ален Ченоин(Hamiel), Наташа Мальте(Gadreel), Джеймс Бэмфорд(Powers Angel), Хезер Дорксен(Susie), Квеси Амеяу(Policeman), Шэрон Кановас(Vilma's cousin), Алекс Феррис(Stevie Corbett), Чела Хорсдэл( Lori Corbett), Джесси Хатч(Peter Lockhart), Дженнифер Китчен(Driver), Элизабет Лэки(Verchiel)--
Описание: Когда Господь создал человека, мятежный Люцифер поднял на небесах бунт. Его армия ангелов была разбита, и навечно изгнана из рая. Эти ангелы – Падшие – отвернулись от Люцифера, выбрав земную жизнь среди людских удовольствий.Они взяли себе смертных жен, от которых у них родились дети, названные Нифилимами - обладающие силой ангелов и душами людей»…
Сирота Аарон в день своего 18-летия встречает ангела и узнает, что он избран, чтобы вернуть изгнанных из рая падших ангелов снова в небесное воинство. Это событие переворачивает всю его жизнь, он начинает понимать другие языки, и даже язык животных, его сила возрастает в несколько раз, а разнообразные ангелы становятся самыми частыми визитерами, которые постоянно рассказывают Аарону что-то новенькое.--

Фильм 2006 г--
Качество: DVDRip
Формат: AVI
Видео кодек: XVID
Аудио кодек: MP3
Видео: 640х352 (16:9), 1079 Кбит/сек, 25,000 кадра/сек, 0.192 Бит/(Пиксели*Кадры)
Аудио: 1 (Rus): 2 канала, 48,0 КГц, 256 Кбит/сек
Аудио: 2 (Eng): 2 канала, 48,0 КГц, 160 Кбит/сек-- --

MediaInfo

Общее
Полное имя : D:\раздачи\Fallen\Fallen.s01e00.DVDRip.Rus.Eng.[1001cinema.tv].avi
Формат : AVI
Формат/Информация : Audio Video Interleave
Размер файла : 867 Мбайт
Продолжительность : 1 ч. 20 м.
Общий поток : 1510 Кбит/сек
Программа кодирования : VirtualDubModRus 1.5.10.2 (build 2542/release)
Библиотека кодирования : VirtualDubMod build 2542/release
Видео
Идентификатор : 0
Формат : MPEG-4 Visual
Профиль формата : Advanced Simple@L5
Параметр BVOP формата : 1
Параметр QPel формата : Нет
Параметр GMC формата : Без точки перехода
Параметр матрицы формата : Default (MPEG)
Режим смешивания : Сжатый битовый поток
Идентификатор кодека : XVID
Идентификатор кодека/Подсказка : XviD
Продолжительность : 1 ч. 20 м.
Битрейт : 1079 Кбит/сек
Ширина : 640 пикселей
Высота : 352 пикселя
Соотношение сторон : 16:9
Частота кадров : 25,000 кадров/сек
Цветовое пространство : YUV
Субдискретизация насыщенности : 4:2:0
Битовая глубина : 8 бит
Тип развёртки : Прогрессивная
Метод сжатия : С потерями
Бит/(Пиксели*Кадры) : 0.192
Размер потока : 620 Мбайт (71%)
Библиотека кодирования : XviD 1.2.0.dev47 (UTC 2006-11-01)
Аудио #1
Идентификатор : 1
Формат : MPEG Audio
Версия формата : Version 1
Профиль формата : Layer 3
Идентификатор кодека : 55
Идентификатор кодека/Подсказка : MP3
Продолжительность : 1 ч. 20 м.
Вид битрейта : Постоянный
Битрейт : 256 Кбит/сек
Каналы : 2 канала
Частота : 48,0 КГц
Метод сжатия : С потерями
Размер потока : 147 Мбайт (17%)
Выравнивание : Соединение по промежуткам
Продолжительность промежутка : 40 мс. (1,00 видеокадр)
Время предзагрузки промежутка : 504 мс.
Заголовок : by SergeyG
Аудио #2
Идентификатор : 2
Формат : MPEG Audio
Версия формата : Version 1
Профиль формата : Layer 3
Режим : Joint stereo
Идентификатор кодека : 55
Идентификатор кодека/Подсказка : MP3
Продолжительность : 1 ч. 20 м.
Вид битрейта : Постоянный
Битрейт : 160 Кбит/сек
Каналы : 2 канала
Частота : 48,0 КГц
Метод сжатия : С потерями
Размер потока : 91,9 Мбайт (11%)
Выравнивание : Соединение по промежуткам
Продолжительность промежутка : 40 мс. (1,00 видеокадр)
Время предзагрузки промежутка : 504 мс.
Заголовок : by SergeyG
--Мини-сериал 1-4 серии --
Качество: DVDRip
Формат: AVI
Видео кодек: XVID
Аудио кодек: MP3
Видео: 640х352 (16:9), 1027 Кбит/сек, 25,000 кадра/сек, 0.182 Бит/(Пиксели*Кадры)
Аудио: 1 (Rus): 2 канала, 48,0 КГц, 256 Кбит/сек
Аудио: 2 (Eng): 2 канала, 48,0 КГц, 160 Кбит/сек-- --

Список серий

Episode 1: The Time of the Redeemer;
Episode 2: Mysterious Ways and All That;
Episode 3: Someone Always Has to Die;
Episode 4: Il Gran Rifuto

MediaInfo

Общее
Полное имя : D:\раздачи\Fallen\Fallen.s01e01e02.DVDRip.Rus.Eng.[1001cinema.tv].avi
Формат : AVI
Формат/Информация : Audio Video Interleave
Размер файла : 863 Мбайт
Продолжительность : 1 ч. 22 м.
Общий поток : 1457 Кбит/сек
Программа кодирования : VirtualDubModRus 1.5.10.2 (build 2542/release)
Библиотека кодирования : VirtualDubMod build 2542/release
Видео
Идентификатор : 0
Формат : MPEG-4 Visual
Профиль формата : Advanced Simple@L5
Параметр BVOP формата : 1
Параметр QPel формата : Нет
Параметр GMC формата : Без точки перехода
Параметр матрицы формата : Default (MPEG)
Режим смешивания : Сжатый битовый поток
Идентификатор кодека : XVID
Идентификатор кодека/Подсказка : XviD
Продолжительность : 1 ч. 22 м.
Битрейт : 1027 Кбит/сек
Ширина : 640 пикселей
Высота : 352 пикселя
Соотношение сторон : 16:9
Частота кадров : 25,000 кадров/сек
Цветовое пространство : YUV
Субдискретизация насыщенности : 4:2:0
Битовая глубина : 8 бит
Тип развёртки : Прогрессивная
Метод сжатия : С потерями
Бит/(Пиксели*Кадры) : 0.182
Размер потока : 608 Мбайт (70%)
Библиотека кодирования : XviD 1.2.0.dev47 (UTC 2006-11-01)
Аудио #1
Идентификатор : 1
Формат : MPEG Audio
Версия формата : Version 1
Профиль формата : Layer 3
Режим : Joint stereo
Идентификатор кодека : 55
Идентификатор кодека/Подсказка : MP3
Продолжительность : 1 ч. 22 м.
Вид битрейта : Постоянный
Битрейт : 256 Кбит/сек
Каналы : 2 канала
Частота : 48,0 КГц
Метод сжатия : С потерями
Размер потока : 152 Мбайт (18%)
Выравнивание : Соединение по промежуткам
Продолжительность промежутка : 40 мс. (1,00 видеокадр)
Время предзагрузки промежутка : 504 мс.
Аудио #2
Идентификатор : 2
Формат : MPEG Audio
Версия формата : Version 1
Профиль формата : Layer 3
Режим : Joint stereo
Идентификатор кодека : 55
Идентификатор кодека/Подсказка : MP3
Продолжительность : 1 ч. 22 м.
Вид битрейта : Постоянный
Битрейт : 160 Кбит/сек
Каналы : 2 канала
Частота : 48,0 КГц
Метод сжатия : С потерями
Размер потока : 94,8 Мбайт (11%)
Выравнивание : Соединение по промежуткам
Продолжительность промежутка : 40 мс. (1,00 видеокадр)
Время предзагрузки промежутка : 504 мс.

_________________
[Торрент-статистика]
[Профиль]  [ЛС] 
Показать сообщения:    
Ответить на тему

Текущее время: Сегодня 04:14

Часовой пояс: GMT + 4



Вы не можете начинать темы
Вы не можете отвечать на сообщения
Вы не можете редактировать свои сообщения
Вы не можете удалять свои сообщения
Вы не можете голосовать в опросах
Вы не можете прикреплять файлы к сообщениям
Вы не можете скачивать файлы